VERSION	0.00.00	1.03.00
FES_MODE	0
BPM_DEF	150.000	150.000	150.000	150.000
MET_DEF	4	4
RESOLUTION	384
CLK_DEF	384
COMPATIBLE_CODE	MA2

BPM	0	0	150.000
MET	0	0	4	4

XHO	2	0	5	384
HLD	3	0	4	384
HLD	4	0	3	384
TAP	5	0	2
HLD	6	0	1	384
HLD	7	0	0	384
HLD	8	0	7	384
TAP	9	0	6
TAP	9	192	6
TAP	9	192	7
BRK	10	0	0
TTP	11	0	1	B	0	L1
TTP	11	0	7	B	0	L1
TTP	12	0	0	B	0	L1
TTP	12	0	6	B	0	L1
TTP	13	0	3	B	0	L1
TTP	13	0	5	B	0	L1
TTP	14	0	2	B	0	L1
TTP	14	192	3	B	0	L1
TTP	15	0	4	B	0	L1
TTP	15	192	5	B	0	L1
THO	16	0	0	384	C	0	L1
HLD	18	0	1	192
XTP	18	0	6
HLD	18	192	2	192
TAP	19	0	3
TAP	19	192	4
TAP	20	0	1
HLD	20	0	6	192
HLD	20	192	5	192
TAP	21	0	4
TAP	21	192	3
HLD	22	0	2	192
TAP	22	0	5
HLD	22	192	1	192
TAP	23	0	0
TAP	23	192	7
TAP	24	0	2
HLD	24	0	5	192
HLD	24	192	6	192
TAP	25	0	7
XTP	25	192	0
XTP	25	192	5
HLD	26	0	1	192
HLD	26	192	2	192
TAP	27	0	3
TAP	27	96	3
TAP	27	192	4
TAP	27	288	4
HLD	28	0	5	192
HLD	28	192	6	192
TAP	29	0	7
TAP	29	96	7
TAP	29	192	0
TAP	29	288	0
HLD	30	0	1	192
TAP	30	96	0
TAP	30	192	7
HLD	31	0	6	192
TAP	31	96	7
TAP	31	192	0
HLD	32	0	5	192
TAP	32	96	4
TAP	32	192	3
TAP	33	0	2
TAP	33	0	4
TAP	33	96	2
TAP	33	96	4
BRK	33	192	1
BRK	33	192	5
XST	34	0	2
SI_	34	0	2	96	192	7
HLD	35	0	6	288
STR	36	0	6
SI_	36	0	6	96	192	3
TAP	37	0	2
TAP	37	96	2
TAP	37	192	2
TAP	37	288	2
STR	38	0	1
SI_	38	0	1	96	192	5
HLD	39	0	6	192
XTP	39	288	6
XTP	40	0	0
XST	40	0	7
SCL	40	0	7	96	288	1
XTP	41	192	0
XTP	41	192	6
TAP	42	0	5
TAP	42	96	5
TAP	42	192	3
TAP	42	192	4
TAP	42	288	3
TAP	42	288	4
TAP	43	0	2
TAP	43	96	2
TAP	43	192	1
TAP	43	192	3
TAP	43	288	1
TAP	43	288	3
TAP	44	0	0
TAP	44	96	0
TAP	44	192	1
TAP	44	192	7
TAP	44	288	1
TAP	44	288	7
TAP	45	0	6
TAP	45	96	6
TAP	45	192	0
TAP	45	192	5
TAP	46	0	4
TAP	46	48	4
TAP	46	96	4
TAP	46	192	3
TAP	46	192	5
TAP	46	288	3
TAP	46	288	5
TAP	47	0	2
TAP	47	48	2
TAP	47	96	2
TAP	47	192	1
TAP	47	192	3
THO	48	0	0	384	C	1	L1
XST	49	288	0
SI_	49	288	0	96	144	3
XTP	49	288	7
TAP	50	192	4
STR	50	288	4
SI_	50	288	4	96	144	7
TAP	51	192	0
TAP	51	288	0
HLD	52	0	1	192
HLD	52	192	2	192
HLD	53	0	3	192
TAP	53	192	4
STR	53	288	4
SI_	53	288	4	96	144	7
TAP	54	192	0
STR	54	288	0
SI_	54	288	0	96	144	3
TAP	55	192	4
TAP	55	288	4
HLD	56	0	3	96
HLD	56	0	5	96
HLD	56	192	2	96
HLD	56	192	4	96
HLD	57	0	3	96
HLD	57	0	4	96
XTP	57	192	2
XTP	57	192	5
STR	58	0	0
SI_	58	0	0	96	144	5
STR	58	0	1
SI_	58	0	1	96	144	4
XTP	59	0	6
TAP	59	96	6
TAP	59	192	6
TAP	59	192	7
TAP	59	288	6
TAP	59	288	7
STR	60	0	6
SI_	60	0	6	96	144	3
STR	60	0	7
SI_	60	0	7	96	144	2
XTP	61	0	1
TAP	61	96	1
TAP	61	192	0
TAP	61	192	1
TAP	61	288	0
TAP	61	288	1
STR	62	0	0
SCR	62	0	0	96	144	3
STR	62	0	7
SCL	62	0	7	96	144	4
XTP	63	0	2
XTP	63	0	5
TAP	63	96	2
TAP	63	96	5
TAP	63	192	3
TAP	63	192	4
STR	63	288	3
SI_	63	288	3	96	192	7
STR	63	288	4
SI_	63	288	4	96	192	0
BRK	65	0	1
BRK	65	0	6
HLD	66	0	3	384
HLD	67	0	4	384
TAP	68	0	3
TAP	68	96	2
TAP	68	192	1
TAP	68	288	0
TAP	69	0	7
TAP	69	96	0
TAP	69	96	6
BRK	69	192	1
BRK	69	192	5
HLD	70	0	2	96
TAP	70	96	3
HLD	70	192	5	96
TAP	70	288	4
HLD	71	0	1	96
TAP	71	96	3
TAP	71	192	0
TAP	71	240	0
TAP	71	288	0
HLD	72	0	6	96
TAP	72	96	7
HLD	72	192	1	96
TAP	72	288	0
HLD	73	0	6	96
TAP	73	96	4
TAP	73	192	7
TAP	73	240	7
TAP	73	288	7
TAP	74	0	0
TAP	74	0	1
TAP	74	96	0
TAP	74	96	1
TAP	74	192	2
TAP	74	240	2
TAP	74	288	2
TAP	75	0	3
TAP	75	0	4
TAP	75	96	3
TAP	75	96	4
TAP	75	192	5
TAP	75	240	5
TAP	75	288	5
TAP	76	0	6
TAP	76	0	7
TAP	76	96	6
TAP	76	96	7
TAP	76	192	0
TAP	76	240	0
TAP	76	288	0
TAP	77	0	1
TAP	77	0	7
TAP	77	96	2
TAP	77	96	6
XTP	77	192	3
XTP	77	192	5
TAP	78	0	2
TAP	78	48	2
TAP	78	96	2
TAP	78	192	1
TAP	78	192	3
TAP	78	288	1
TAP	78	288	3
TAP	79	0	0
TAP	79	48	0
TAP	79	96	0
TAP	79	192	1
TAP	79	192	7
TAP	79	288	1
TAP	79	288	7
TAP	80	0	6
TAP	80	48	6
TAP	80	96	6
TAP	80	192	6
TAP	80	192	7
TAP	80	288	6
TAP	80	288	7
TAP	81	0	0
TAP	81	0	5
TAP	81	96	1
TAP	81	96	4
TAP	81	192	2
TAP	81	192	3
TAP	81	288	2
TAP	81	288	3
TAP	82	0	4
TAP	82	0	5
TAP	82	96	3
TAP	82	96	6
TAP	82	192	2
TAP	82	192	3
TAP	82	288	1
TAP	82	288	4
TAP	83	0	6
TAP	83	0	7
TAP	83	96	0
TAP	83	96	5
TAP	83	192	0
TAP	83	192	1
TAP	83	288	2
TAP	83	288	7
TAP	84	0	1
TAP	84	48	1
TAP	84	96	1
TAP	84	192	6
TAP	84	240	6
TAP	84	288	6
TAP	85	0	0
TAP	85	0	7
TAP	85	48	0
TAP	85	48	7
TAP	85	96	0
TAP	85	96	7
TAP	85	192	2
TAP	85	192	5
TAP	85	240	2
TAP	85	240	5
TAP	85	288	2
TAP	85	288	5
TTP	86	0	0	C	1	L1
TTP	86	0	1	B	0	L1
TTP	86	0	6	B	0	L1
TTP	90	48	4	B	0	L1
TTP	90	48	5	E	0	L1
TTP	91	120	3	B	0	L1
TTP	91	120	3	E	0	L1
THO	92	336	0	1536	C	0	L1

T_REC_TAP	198
T_REC_BRK	7
T_REC_XTP	16
T_REC_HLD	39
T_REC_XHO	1
T_REC_STR	13
T_REC_BST	0
T_REC_XST	3
T_REC_TTP	17
T_REC_THO	3
T_REC_SLD	16
T_REC_ALL	313
T_NUM_TAP	247
T_NUM_BRK	7
T_NUM_HLD	43
T_NUM_SLD	16
T_NUM_ALL	313
T_JUDGE_TAP	254
T_JUDGE_HLD	218
T_JUDGE_SLD	16
T_JUDGE_ALL	488
TTM_EACHPAIRS	73
TTM_SCR_TAP	123500
TTM_SCR_BRK	18200
TTM_SCR_HLD	43000
TTM_SCR_SLD	24000
TTM_SCR_ALL	208700
TTM_SCR_S	201800
TTM_SCR_SS	208000
TTM_RAT_ACV	10033

