VERSION	0.00.00	1.03.00
FES_MODE	0
BPM_DEF	150.000	150.000	150.000	150.000
MET_DEF	4	4
RESOLUTION	384
CLK_DEF	384
COMPATIBLE_CODE	MA2

BPM	0	0	150.000
MET	0	0	4	4

TAP	2	0	0
TAP	2	192	0
TAP	3	0	0
TAP	4	0	1
TAP	4	192	1
TAP	5	0	1
TAP	6	0	2
TAP	6	192	2
TAP	7	0	2
TAP	8	0	3
TAP	8	192	3
TAP	9	0	3
HLD	10	0	4	384
HLD	12	0	5	384
HLD	14	0	6	384
HLD	16	0	7	384
TAP	18	0	0
TAP	18	96	0
TAP	18	288	0
TAP	19	96	1
TAP	19	288	1
TAP	20	96	2
TAP	20	288	2
TAP	21	96	3
TAP	21	288	3
TAP	22	96	4
TAP	22	288	4
TAP	23	96	5
TAP	23	288	5
TAP	24	96	6
TAP	24	288	6
TAP	25	96	7
TAP	25	288	7
TAP	26	0	0
TAP	26	96	0
TAP	26	192	0
TAP	27	0	7
TAP	27	96	7
TAP	27	192	7
TAP	28	0	6
TAP	28	96	6
TAP	28	192	6
TAP	29	0	5
TAP	29	96	5
XTP	29	192	5
TAP	30	0	4
TAP	30	96	4
TAP	30	192	4
TAP	31	0	3
TAP	31	96	3
TAP	31	192	3
TAP	32	0	2
TAP	32	96	2
TAP	32	192	2
TAP	33	0	1
TAP	33	96	1
TAP	33	192	1
TTP	34	0	0	E	0	L1
TTP	34	0	1	E	0	L1
THO	35	0	0	192	C	0	L1
TTP	36	0	0	E	0	L1
TTP	36	0	7	E	0	L1
THO	37	0	0	192	C	0	L1
TTP	38	0	2	B	0	L1
TTP	38	0	3	B	0	L1
TTP	38	0	4	B	0	L1
TTP	38	0	5	B	0	L1
THO	39	0	0	192	C	0	L1
STR	40	0	7
SI_	40	0	7	96	288	3
TAP	42	0	3
TAP	42	96	3
TAP	42	192	3
TAP	42	288	3
TAP	43	0	4
TAP	43	96	4
TAP	43	192	4
TAP	43	288	4
TAP	44	0	2
TAP	44	0	3
TAP	44	96	2
TAP	44	96	3
TAP	44	192	2
TAP	44	192	3
TAP	44	288	2
TAP	44	288	3
TAP	45	0	4
TAP	45	0	5
TAP	45	96	4
TAP	45	96	5
TAP	45	192	4
TAP	45	192	5
TAP	45	288	4
TAP	45	288	5
TAP	46	0	3
TAP	46	48	3
TAP	46	96	3
TAP	46	192	3
TAP	46	240	3
TAP	46	288	3
TAP	47	0	4
TAP	47	48	4
TAP	47	96	4
TAP	47	192	4
TAP	47	240	4
TAP	47	288	4
THO	48	0	0	384	C	1	L1
HLD	50	0	4	192
HLD	51	0	3	192
TAP	52	0	4
TAP	52	192	4
TAP	53	0	3
TAP	53	96	3
TAP	53	192	2
TAP	53	192	3
TAP	54	0	2
TAP	54	192	2
TAP	55	0	1
TAP	55	96	1
TAP	55	192	0
TAP	55	192	1
TAP	56	0	0
TAP	56	192	0
XHO	57	0	0	192
XHO	57	0	7	192
TAP	58	0	7
TAP	58	192	7
TAP	59	0	6
TAP	59	96	6
TAP	59	192	6
TAP	59	192	7
TAP	60	0	5
TAP	60	192	5
TAP	61	0	4
TAP	61	96	4
TAP	61	192	3
TAP	61	192	4
TAP	62	0	3
TAP	62	96	3
TAP	62	192	2
TAP	62	192	3
TAP	63	0	4
TAP	63	96	4
TAP	63	192	4
TAP	63	192	5
XST	64	0	3
SI_	64	0	3	96	288	0
XST	64	0	4
SI_	64	0	4	96	288	7
TAP	66	0	0
TAP	67	0	1
TAP	68	0	2
TAP	68	192	2
TAP	69	0	3
TAP	69	96	3
BRK	69	192	3
BRK	69	192	4
TAP	70	0	4
TAP	70	96	4
TAP	70	192	4
TAP	70	288	4
TAP	71	0	5
TAP	71	96	5
TAP	71	192	4
TAP	71	192	5
TAP	72	0	6
TAP	72	96	6
TAP	72	192	6
TAP	72	288	6
TAP	73	0	7
TAP	73	96	7
TAP	73	192	0
TAP	73	192	7
TAP	74	0	0
TAP	74	96	0
TAP	74	192	0
TAP	74	288	0
TAP	75	0	1
TAP	75	96	1
TAP	75	192	0
TAP	75	192	1
TAP	76	0	2
TAP	76	96	2
TAP	76	192	2
TAP	76	288	2
TAP	77	0	3
TAP	77	0	4
TAP	77	96	3
TAP	77	96	4
BRK	77	192	3
BRK	77	192	4
TAP	78	0	3
TAP	78	96	3
TAP	78	192	3
TAP	78	288	3
TAP	79	0	2
TAP	79	96	2
TAP	79	192	2
TAP	79	288	2
TAP	80	0	1
TAP	80	96	1
TAP	80	192	1
TAP	80	288	1
TAP	81	0	0
TAP	81	96	0
TAP	81	192	0
TAP	81	192	7
TAP	82	0	7
TAP	82	96	7
TAP	82	192	6
TAP	82	288	6
TAP	83	0	5
TAP	83	96	5
TAP	83	192	4
TAP	83	288	3
TAP	83	288	4
TAP	84	0	3
TAP	84	48	3
TAP	84	96	3
TAP	84	192	4
TAP	84	240	4
TAP	84	288	4
TAP	85	0	3
TAP	85	0	4
TAP	85	48	3
TAP	85	48	4
TAP	85	96	3
TAP	85	96	4
BRK	85	192	3
BRK	85	192	4
XST	86	0	4
SI_	86	0	4	96	288	7
XST	88	16	0
SI_	88	16	0	96	288	3
XTP	90	48	1
XTP	90	48	6
XTP	91	120	2
XTP	91	120	5
XTP	92	336	3
XTP	92	336	4

T_REC_TAP	197
T_REC_BRK	6
T_REC_XTP	7
T_REC_HLD	6
T_REC_XHO	2
T_REC_STR	1
T_REC_BST	0
T_REC_XST	4
T_REC_TTP	8
T_REC_THO	4
T_REC_SLD	5
T_REC_ALL	240
T_NUM_TAP	217
T_NUM_BRK	6
T_NUM_HLD	12
T_NUM_SLD	5
T_NUM_ALL	240
T_JUDGE_TAP	223
T_JUDGE_HLD	68
T_JUDGE_SLD	5
T_JUDGE_ALL	296
TTM_EACHPAIRS	32
TTM_SCR_TAP	108500
TTM_SCR_BRK	15600
TTM_SCR_HLD	12000
TTM_SCR_SLD	7500
TTM_SCR_ALL	143600
TTM_SCR_S	138750
TTM_SCR_SS	143000
TTM_RAT_ACV	10041

