VERSION	0.00.00	1.03.00
FES_MODE	0
BPM_DEF	145.000	145.000	145.000	145.000
MET_DEF	4	4
RESOLUTION	384
CLK_DEF	384
COMPATIBLE_CODE	MA2

BPM	0	0	145.000
MET	0	0	4	4

STR	6	0	1
SCR	6	0	1	96	288	4
STR	7	0	6
SCL	7	0	6	96	288	3
STR	8	0	1
SXR	8	0	1	96	432	4
TAP	9	288	5
STR	10	0	6
SCL	10	0	6	96	288	3
STR	11	0	1
SCR	11	0	1	96	288	4
TAP	12	0	5
TAP	12	96	5
TAP	12	192	4
TAP	12	288	3
TAP	13	0	2
XTP	13	48	0
XTP	13	48	1
TAP	13	96	2
TAP	13	192	3
TAP	13	288	4
TAP	14	0	2
XHO	14	48	2	768
STR	14	144	1
SCR	14	144	1	96	48	4
TAP	14	240	1
STR	14	336	6
SCL	14	336	6	96	48	3
TAP	15	48	6
TAP	15	144	1
TAP	15	192	1
TAP	15	240	1
TAP	15	336	3
HLD	16	48	4	288
TAP	16	144	1
TAP	16	192	1
TAP	16	240	1
HLD	16	336	3	480
TAP	17	48	5
TAP	17	144	4
TAP	17	240	2
TAP	17	336	4
HLD	18	48	5	672
STR	18	144	6
SCL	18	144	6	96	48	3
TAP	18	240	6
STR	18	336	1
SCR	18	336	1	96	48	4
TAP	19	48	1
TAP	19	144	6
TAP	19	192	6
TAP	19	240	6
TAP	19	336	4
TAP	20	48	3
TAP	20	48	4
TAP	20	144	2
TAP	20	168	3
HLD	20	192	2	96
TAP	20	240	3
HLD	20	288	5	96
TAP	20	336	4
TAP	21	0	3
TAP	21	48	1
TAP	21	72	3
TAP	21	96	1
TAP	21	144	6
TAP	21	168	4
TAP	21	192	6
TAP	21	240	3
TAP	21	240	7
TAP	21	288	2
TAP	21	288	6
TAP	21	336	1
TAP	21	336	5
BST	22	0	0
SI_	22	0	0	96	48	3
BRK	22	0	4
TAP	22	96	5
STR	22	144	6
SI_	22	144	6	96	48	3
TAP	22	240	2
TAP	22	288	1
STR	22	336	0
SCR	22	336	0	96	48	3
TAP	23	48	4
TAP	23	96	5
STR	23	144	6
SCL	23	144	6	96	48	3
TAP	23	240	2
TAP	23	288	1
XST	23	336	0
SCR	23	336	0	96	96	3
STR	24	48	3
SCR	24	48	3	96	96	6
STR	24	144	6
SCR	24	144	6	96	96	1
TAP	24	240	1
XST	24	336	7
SCL	24	336	7	96	96	4
STR	25	48	4
SCL	25	48	4	96	96	1
STR	25	144	1
SCL	25	144	1	96	96	6
STR	25	240	6
SXL	25	240	6	96	168	3
HLD	25	336	2	144
STR	26	192	1
SI_	26	192	1	96	48	4
TAP	26	192	4
TAP	26	288	5
TAP	27	0	3
STR	27	0	6
SI_	27	0	6	96	48	3
XTP	27	96	1
XTP	27	144	1
TAP	27	240	0
TAP	27	240	7
BST	27	336	2
SCL	27	336	2	96	144	4
BST	27	336	5
SCR	27	336	5	96	144	3
TAP	28	288	3
HLD	28	288	4	480
TTP	29	0	6	B	0	M1
TTP	29	96	7	B	0	M1
TTP	29	192	0	B	0	M1
TTP	29	288	1	B	0	M1
HLD	30	0	1	96
HLD	30	96	3	96
HLD	30	192	5	96
HLD	30	288	7	96
TAP	31	0	3
TAP	31	48	2
TAP	31	96	1
STR	31	144	0
SCR	31	144	0	96	48	3
TAP	31	144	4
TAP	31	240	5
TAP	31	288	6
XST	31	336	7
SCL	31	336	7	96	96	4
STR	32	48	4
SCL	32	48	4	96	96	1
STR	32	144	1
SCL	32	144	1	96	96	6
STR	32	240	6
SCL	32	240	6	96	96	3
STR	32	336	3
SXL	32	336	3	96	192	6
TAP	33	48	2
TAP	33	96	1
XTP	33	144	0
TAP	33	240	0
TAP	33	288	1
TAP	33	336	2
TAP	34	0	3
STR	34	0	7
SI_	34	0	7	96	48	4
TAP	34	96	2
STR	34	144	1
SI_	34	144	1	96	48	4
TAP	34	240	5
TAP	34	288	6
STR	34	336	7
SCL	34	336	7	96	48	4
TAP	35	48	3
TAP	35	96	2
STR	35	144	1
SCR	35	144	1	96	48	4
TAP	35	240	5
TAP	35	288	6
STR	35	336	7
SXL	35	336	7	96	240	2
SXR	35	336	7	96	240	4
TAP	37	0	3
TAP	37	0	4
TAP	37	48	3
HLD	37	48	4	144
TAP	37	228	2
TAP	37	240	3
TAP	37	288	1
TAP	37	288	4
TAP	37	336	1
TAP	37	336	4
TAP	38	0	1
TAP	38	0	4
TAP	38	96	3
TAP	38	96	6
TAP	38	144	3
STR	38	144	6
SCR	38	144	6	96	48	1
STR	38	240	2
SI_	38	240	2	96	48	7
XTP	38	336	2
TAP	39	48	6
TAP	39	96	5
TAP	39	144	3
STR	39	144	4
SI_	39	144	4	96	48	0
XTP	39	240	1
TAP	39	336	2
TAP	39	344	3
STR	40	48	6
SCL	40	48	6	96	48	3
TAP	40	48	7
TAP	40	144	2
TAP	40	240	0
STR	40	240	1
SCR	40	240	1	96	48	4
TAP	40	336	5
STR	41	48	6
SI_	41	48	6	96	48	1
TAP	41	48	7
STR	41	144	2
SI_	41	144	2	96	48	5
STR	41	240	7
SXL	41	240	7	96	168	2
SXR	41	240	7	96	168	4
XTP	41	336	7
TAP	42	192	1
TAP	42	240	3
TAP	42	288	4
HLD	42	336	6	384
STR	43	48	7
SI_	43	48	7	96	48	3
STR	43	240	0
SI_	43	240	0	96	48	4
TAP	44	48	3
TAP	44	48	5
TAP	44	96	3
TAP	44	96	5
TAP	44	192	2
TAP	44	192	4
TAP	44	240	2
TAP	44	240	4
TAP	44	288	2
TAP	44	288	4
TAP	44	336	3
TAP	44	336	6
TAP	45	0	3
TAP	45	0	6
TAP	45	48	1
TAP	45	48	4
TAP	45	96	1
TAP	45	96	4
TAP	45	144	3
TAP	45	144	7
TAP	45	192	3
TAP	45	192	7
TAP	45	240	0
TAP	45	240	4
TAP	45	336	3
TAP	45	336	4
HLD	46	0	1	336
TAP	46	96	2
STR	46	144	2
SCR	46	144	2	96	48	5
HLD	46	336	6	96
TAP	47	48	4
TAP	47	144	3
TAP	47	192	2
TAP	47	240	4
TAP	47	288	5
HLD	47	336	6	288
STR	48	48	5
SCL	48	48	5	96	48	2
HLD	48	240	1	96
TAP	48	336	3
TAP	49	48	3
TAP	49	48	4
TTP	49	144	1	E	0	M1
TTP	49	192	6	B	0	M1
TTP	49	240	5	B	0	M1
TTP	49	288	3	E	0	M1
TTP	49	336	4	E	0	M1
TTP	50	0	2	B	0	M1
TTP	50	48	0	C	0	M1
TTP	50	96	0	E	0	M1
TTP	50	144	1	E	0	M1
TTP	50	192	7	E	0	M1
TTP	50	240	6	B	0	M1
TTP	50	288	3	E	0	M1
TTP	50	336	5	E	0	M1
TTP	51	0	5	B	0	M1
TTP	51	48	1	B	0	M1
TTP	51	72	0	B	0	M1
TTP	51	96	0	E	0	M1
TTP	51	144	7	E	0	M1
TTP	51	192	2	E	0	M1
TTP	51	240	5	B	0	M1
TTP	51	288	5	E	0	M1
TTP	51	336	3	E	0	M1
TTP	52	0	4	B	0	M1
TTP	52	48	2	E	0	M1
TTP	52	96	7	E	0	M1
TTP	52	144	7	B	0	M1
TTP	52	192	1	B	0	M1
TTP	52	240	5	B	0	M1
TTP	52	288	5	E	0	M1
TTP	52	336	4	E	0	M1
THO	53	0	0	192	C	1	M1
TAP	54	0	4
TAP	54	0	5
TAP	54	48	3
TAP	54	96	2
TAP	54	144	0
HLD	54	144	1	96
TAP	54	216	3
TAP	54	240	3
TAP	54	288	2
TAP	54	288	4
TAP	54	336	3
TAP	54	336	5
HLD	55	0	6	96
TAP	55	48	7
TAP	55	96	0
TAP	55	144	1
TAP	55	168	0
TAP	55	192	1
TAP	55	240	2
TAP	55	240	3
TAP	55	288	6
TAP	55	336	4
TAP	55	336	5
TAP	56	0	0
TAP	56	48	1
TAP	56	96	2
TAP	56	96	3
TAP	56	144	5
TAP	56	168	4
TAP	56	192	6
TAP	56	240	0
TAP	56	240	1
TAP	56	288	2
TAP	56	288	7
TAP	56	336	3
TAP	56	336	6
HLD	57	0	5	96
TAP	57	48	7
HLD	57	96	3	96
TAP	57	144	7
HLD	57	192	4	96
TAP	57	240	0
HLD	57	288	2	96
TAP	57	336	0
TAP	58	0	3
TAP	58	48	4
TAP	58	96	5
HLD	58	144	6	96
TAP	58	144	7
TAP	58	216	4
TAP	58	240	4
TAP	58	288	3
TAP	58	288	5
TAP	58	336	2
TAP	58	336	4
HLD	59	0	1	96
TAP	59	48	0
TAP	59	96	7
TAP	59	144	6
TAP	59	168	7
TAP	59	192	6
TAP	59	240	4
TAP	59	240	5
TAP	59	288	1
TAP	59	336	2
TAP	59	336	3
TAP	60	0	7
TAP	60	48	6
TAP	60	96	4
TAP	60	96	5
TAP	60	144	2
TAP	60	168	3
TAP	60	192	1
TAP	60	240	6
TAP	60	240	7
TAP	60	288	0
TAP	60	288	5
TAP	60	336	1
TAP	60	336	4
XTP	61	0	2
XTP	61	0	3
TAP	61	48	5
TAP	61	72	3
XTP	61	96	7
TAP	61	144	2
TAP	61	168	4
XTP	61	192	0
TAP	61	240	6
TAP	61	240	7
TAP	61	288	4
TAP	61	288	5
TAP	61	336	2
TAP	61	336	3
BRK	62	0	0
BST	62	0	1
SCR	62	0	1	96	48	4
TAP	62	96	1
TAP	62	96	5
STR	62	144	6
SCR	62	144	6	96	48	1
TAP	62	240	4
TAP	62	240	6
TAP	62	288	3
STR	62	336	2
SCR	62	336	2	96	48	5
TAP	63	48	0
TAP	63	48	2
TAP	63	96	7
STR	63	144	6
SCL	63	144	6	96	48	3
TAP	63	240	3
TAP	63	240	6
TAP	63	288	2
STR	63	336	1
SCR	63	336	1	96	48	4
STR	64	48	0
SI_	64	48	0	96	48	4
STR	64	144	7
SI_	64	144	7	96	48	3
STR	64	240	6
SCL	64	240	6	96	48	3
STR	64	336	1
SUR	64	336	1	96	48	5
STR	65	48	7
SUL	65	48	7	96	48	3
STR	65	144	0
SCR	65	144	0	96	72	5
XST	65	240	6
SUL	65	240	6	96	168	3
SXL	65	240	6	96	168	2
XTP	65	336	6
TAP	66	192	1
TAP	66	240	3
TAP	66	288	4
HLD	66	336	6	144
TAP	67	48	5
HLD	67	96	1	96
TAP	67	144	2
HLD	67	192	7	96
TAP	67	240	5
HLD	67	288	0	96
TAP	67	336	2
TAP	68	0	4
TAP	68	48	5
TAP	68	72	4
TAP	68	96	6
TAP	68	144	2
TAP	68	168	3
TAP	68	192	1
TAP	68	240	6
TAP	68	264	7
TAP	68	288	5
TAP	68	336	1
TAP	68	360	0
TAP	69	0	2
TAP	69	48	4
TAP	69	96	2
TAP	69	96	5
TAP	69	192	0
TAP	69	192	7
TAP	69	240	0
TAP	69	240	7
TAP	69	288	3
TAP	69	288	4
BRK	69	336	1
BRK	69	336	6

T_REC_TAP	264
T_REC_BRK	4
T_REC_XTP	13
T_REC_HLD	29
T_REC_XHO	1
T_REC_STR	51
T_REC_BST	4
T_REC_XST	4
T_REC_TTP	34
T_REC_THO	1
T_REC_SLD	62
T_REC_ALL	467
T_NUM_TAP	366
T_NUM_BRK	8
T_NUM_HLD	31
T_NUM_SLD	62
T_NUM_ALL	467
T_JUDGE_TAP	374
T_JUDGE_HLD	128
T_JUDGE_SLD	62
T_JUDGE_ALL	564
TTM_EACHPAIRS	71
TTM_SCR_TAP	183000
TTM_SCR_BRK	20800
TTM_SCR_HLD	31000
TTM_SCR_SLD	93000
TTM_SCR_ALL	327800
TTM_SCR_S	317200
TTM_SCR_SS	327000
TTM_RAT_ACV	10024

