VERSION	0.00.00	1.03.00
FES_MODE	0
BPM_DEF	145.000	145.000	145.000	145.000
MET_DEF	4	4
RESOLUTION	384
CLK_DEF	384
COMPATIBLE_CODE	MA2

BPM	0	0	145.000
MET	0	0	4	4

HLD	6	0	3	384
HLD	7	0	4	192
HLD	7	192	5	192
STR	8	0	6
SCL	8	0	6	96	192	3
TTP	9	0	3	E	0	M1
TTP	9	144	6	B	0	M1
TTP	9	288	4	E	0	M1
HLD	10	0	5	384
HLD	11	0	4	192
HLD	11	192	3	192
TAP	12	0	2
TAP	12	96	2
TAP	12	192	2
TAP	12	288	2
TAP	13	0	2
XTP	13	48	3
TAP	13	96	2
TAP	13	192	2
TAP	13	192	3
BRK	13	288	1
BRK	13	288	4
TAP	14	0	5
HLD	14	48	5	96
HLD	14	144	3	96
HLD	14	240	4	96
HLD	14	336	2	96
HLD	15	48	3	96
TAP	15	144	1
TAP	15	192	2
TAP	15	240	3
TAP	15	336	4
TAP	15	336	6
STR	16	48	1
SI_	16	48	1	96	144	5
TAP	16	48	3
TTP	17	0	5	B	0	M1
TTP	17	96	2	B	0	M1
TTP	17	192	4	B	0	M1
TTP	17	288	3	B	0	M1
TAP	18	0	2
HLD	18	48	2	96
HLD	18	144	4	96
HLD	18	240	3	96
HLD	18	336	5	96
HLD	19	48	4	96
TAP	19	144	6
TAP	19	192	5
TAP	19	240	4
TAP	19	336	1
HLD	19	336	3	240
TAP	20	192	2
TAP	20	240	3
TAP	20	288	4
TAP	20	336	5
TAP	21	48	4
TAP	21	48	5
TAP	21	144	2
TAP	21	144	3
TAP	21	240	1
TAP	21	240	6
BRK	21	288	1
BRK	21	288	6
STR	22	0	0
SCR	22	0	0	96	96	3
TAP	22	192	4
TAP	22	288	4
TAP	22	288	5
STR	23	0	7
SCL	23	0	7	96	96	4
TAP	23	192	3
TAP	23	288	2
TAP	23	288	3
STR	24	0	0
SI_	24	0	0	96	96	4
STR	24	192	6
SI_	24	192	6	96	96	3
STR	25	0	1
SI_	25	0	1	96	96	4
TAP	25	192	5
TAP	25	288	3
TAP	25	288	6
TAP	26	0	4
STR	26	0	5
SXL	26	0	5	96	288	2
TAP	27	192	2
TAP	27	192	3
STR	27	288	1
SCR	27	288	1	96	288	6
TAP	27	288	4
HLD	28	0	7	288
BRK	29	0	1
BRK	29	0	6
TAP	29	240	3
TAP	29	240	4
TAP	29	288	3
TAP	29	288	4
STR	30	0	7
SCL	30	0	7	96	96	4
TAP	30	192	3
TAP	30	288	2
TAP	30	288	3
STR	31	0	0
SCR	31	0	0	96	96	3
TAP	31	192	4
TAP	31	288	4
TAP	31	288	5
STR	32	0	7
SI_	32	0	7	96	96	3
STR	32	192	1
SI_	32	192	1	96	96	4
STR	33	0	6
SI_	33	0	6	96	96	3
TAP	33	192	2
TAP	33	288	1
TAP	33	288	4
TTP	34	0	2	B	0	M1
TTP	34	96	2	E	0	M1
TTP	34	96	3	B	0	M1
TTP	34	192	5	B	0	M1
TTP	34	288	4	B	0	M1
TTP	34	288	6	E	0	M1
TTP	35	0	2	E	0	M1
TTP	35	96	1	E	0	M1
TTP	35	96	3	E	0	M1
TTP	35	192	6	E	0	M1
TTP	35	288	5	E	0	M1
TTP	35	288	7	E	0	M1
THO	36	0	0	384	C	1	M1
TTP	37	0	1	B	0	M1
TTP	37	0	6	B	0	M1
TAP	37	240	0
TAP	37	288	7
TAP	37	336	0
XTP	38	0	1
XTP	38	0	6
TAP	38	96	2
TAP	38	96	3
HLD	38	144	1	96
TAP	38	144	4
TAP	38	240	0
TAP	38	288	7
HLD	38	336	6	96
TAP	39	48	5
TAP	39	96	4
HLD	39	144	3	96
TAP	39	240	4
TAP	39	336	1
TAP	39	336	7
TAP	40	48	6
TAP	40	48	7
TAP	40	144	4
TAP	40	144	5
TAP	40	240	2
TAP	40	240	3
TAP	40	336	0
TAP	40	336	1
HLD	41	48	7	96
HLD	41	144	5	96
HLD	41	240	3	96
TAP	41	336	2
XTP	42	0	1
XTP	42	0	4
TAP	42	96	0
TAP	42	96	7
TAP	42	192	2
TAP	42	240	3
TAP	42	288	1
TAP	42	288	4
TAP	43	0	2
TAP	43	0	3
TAP	43	96	0
TAP	43	96	7
TAP	43	192	5
TAP	43	240	4
TAP	43	288	3
TAP	43	288	6
TTP	44	0	3	E	0	M1
TTP	44	48	0	C	0	M1
TTP	44	96	1	E	0	M1
TTP	44	144	7	E	0	M1
TTP	44	192	1	B	0	M1
TTP	44	240	5	B	0	M1
TTP	44	288	3	E	0	M1
TTP	44	336	5	E	0	M1
TTP	45	0	2	B	0	M1
TTP	45	48	6	B	0	M1
TTP	45	96	1	E	0	M1
TTP	45	144	7	E	0	M1
TTP	45	192	1	B	0	M1
TTP	45	240	5	B	0	M1
TTP	45	288	3	E	0	M1
TTP	45	336	4	E	0	M1
TTP	46	0	0	B	0	M1
TTP	46	0	0	C	1	M1
TTP	46	0	7	B	0	M1
HLD	47	0	4	384
HLD	48	0	3	384
HLD	49	0	4	384
TAP	50	0	3
TAP	50	96	3
TAP	50	144	3
TAP	50	240	2
TAP	50	288	2
TAP	51	0	3
TAP	51	48	3
TAP	51	144	4
TAP	51	192	4
TAP	51	288	3
TAP	51	288	5
TAP	52	0	2
TAP	52	0	4
TAP	52	96	3
TAP	52	144	3
TAP	52	240	4
TAP	52	288	4
TAP	53	0	5
TAP	53	48	5
TAP	53	144	4
TAP	53	192	4
BRK	53	288	1
BRK	53	288	6
TAP	54	0	5
TAP	54	48	4
TAP	54	96	3
HLD	54	144	2	72
TAP	54	216	3
TAP	54	240	2
TAP	54	288	1
TAP	54	288	4
TAP	55	0	3
TAP	55	48	3
TAP	55	96	3
TAP	55	144	5
TAP	55	168	4
TAP	55	192	5
TAP	55	288	3
TAP	55	288	6
TAP	56	0	5
TAP	56	48	4
TAP	56	96	2
TAP	56	144	3
TAP	56	192	4
TAP	56	240	5
TAP	56	288	2
TAP	56	336	1
TAP	57	0	6
TAP	57	48	6
TAP	57	96	7
BRK	57	192	2
BRK	57	192	7
BRK	57	288	0
BRK	57	288	5
TAP	58	0	2
TAP	58	48	3
TAP	58	96	4
HLD	58	144	5	72
TAP	58	216	4
TAP	58	240	5
TAP	58	288	3
TAP	58	288	6
TAP	59	0	4
TAP	59	48	4
TAP	59	96	4
TAP	59	144	2
TAP	59	168	3
TAP	59	192	2
TAP	59	288	1
TAP	59	288	4
TAP	60	0	3
TAP	60	48	3
TAP	60	96	4
TAP	60	144	4
TAP	60	192	2
TAP	60	240	2
STR	60	288	1
SLL	60	288	1	96	192	2
STR	60	288	5
SLL	60	288	5	96	192	6
BRK	61	288	0
BRK	61	288	4
XTP	62	0	1
XTP	62	0	6
TAP	62	96	4
TAP	62	96	5
TAP	62	144	3
HLD	62	144	6	96
TAP	62	240	7
TAP	62	288	0
HLD	62	336	1	96
TAP	63	48	2
TAP	63	96	3
HLD	63	144	4	96
TAP	63	240	3
TAP	63	336	0
TAP	63	336	6
TAP	64	48	0
TAP	64	48	1
TAP	64	144	2
TAP	64	144	3
TAP	64	240	4
TAP	64	240	5
TAP	64	336	6
TAP	64	336	7
HLD	65	48	0	96
HLD	65	144	2	96
HLD	65	240	4	96
TAP	65	336	5
XTP	66	0	3
XTP	66	0	6
TAP	66	96	6
TAP	66	96	7
TAP	66	192	0
TAP	66	240	1
TAP	66	288	2
TAP	66	288	7
TAP	67	0	4
TAP	67	0	5
TAP	67	96	3
TAP	67	96	6
TAP	67	192	7
TAP	67	240	6
TAP	67	288	0
TAP	67	288	5
TAP	68	0	2
TAP	68	48	3
TAP	68	96	5
TAP	68	144	4
TAP	68	192	3
TAP	68	240	2
TAP	68	288	6
TAP	68	336	7
TAP	69	0	0
XTP	69	48	1
XTP	69	48	7
XTP	69	96	1
XTP	69	96	7
TAP	69	192	3
TAP	69	192	4
STR	69	240	3
SI_	69	240	3	96	48	0
STR	69	240	4
SI_	69	240	4	96	48	7

T_REC_TAP	204
T_REC_BRK	14
T_REC_XTP	13
T_REC_HLD	35
T_REC_XHO	0
T_REC_STR	18
T_REC_BST	0
T_REC_XST	0
T_REC_TTP	40
T_REC_THO	1
T_REC_SLD	18
T_REC_ALL	343
T_NUM_TAP	275
T_NUM_BRK	14
T_NUM_HLD	36
T_NUM_SLD	18
T_NUM_ALL	343
T_JUDGE_TAP	289
T_JUDGE_HLD	123
T_JUDGE_SLD	18
T_JUDGE_ALL	430
TTM_EACHPAIRS	64
TTM_SCR_TAP	137500
TTM_SCR_BRK	36400
TTM_SCR_HLD	36000
TTM_SCR_SLD	27000
TTM_SCR_ALL	236900
TTM_SCR_S	228450
TTM_SCR_SS	235500
TTM_RAT_ACV	10059

