VERSION	0.00.00	1.03.00
FES_MODE	0
BPM_DEF	145.000	145.000	145.000	145.000
MET_DEF	4	4
RESOLUTION	384
CLK_DEF	384
COMPATIBLE_CODE	MA2

BPM	0	0	145.000
MET	0	0	4	4

HLD	6	0	2	384
HLD	7	0	3	384
HLD	8	0	4	384
TAP	9	0	5
TAP	9	192	5
HLD	10	0	4	192
HLD	10	0	5	192
HLD	11	0	2	192
HLD	11	0	3	192
TAP	12	0	4
TAP	12	96	4
TAP	12	192	3
TAP	12	288	3
TAP	13	0	3
TAP	13	0	4
XTP	13	192	2
XTP	13	192	5
HLD	14	0	5	192
TAP	14	192	4
TAP	15	0	5
TAP	15	96	5
TAP	15	192	4
HLD	16	0	2	192
TAP	16	192	3
TAP	17	0	2
TAP	17	96	2
TAP	17	192	3
HLD	18	0	1	192
TAP	18	192	0
TAP	19	0	1
TAP	19	96	1
TAP	19	192	0
HLD	20	0	7	192
HLD	20	192	0	192
TAP	21	0	7
XTP	21	192	1
XTP	21	192	6
TAP	22	0	2
TAP	22	96	3
TAP	22	192	4
TAP	22	288	5
TAP	23	0	4
TAP	23	0	5
TAP	23	192	3
TAP	23	192	6
TAP	24	0	5
TAP	24	96	4
TAP	24	192	3
TAP	24	288	2
TAP	25	0	2
TAP	25	0	3
TAP	25	192	1
TAP	25	192	4
TAP	26	0	1
TAP	26	96	1
TAP	26	192	0
TAP	27	0	6
TAP	27	96	6
TAP	27	192	7
TAP	28	0	0
TAP	28	96	0
TAP	28	192	7
TAP	28	288	7
TAP	29	0	0
TAP	29	0	7
XTP	29	192	1
XTP	29	192	6
HLD	30	0	2	192
TAP	30	96	3
TAP	30	192	3
HLD	31	0	5	192
TAP	31	96	4
TAP	31	192	4
HLD	32	0	6	192
TAP	32	96	7
TAP	32	192	7
TAP	33	0	0
TAP	33	96	0
TAP	33	192	1
TAP	33	192	7
HLD	34	0	2	192
TAP	34	96	3
TAP	34	192	4
HLD	35	0	5	192
TAP	35	96	4
TAP	35	192	3
TAP	36	0	6
TAP	36	96	6
TAP	36	96	7
TAP	36	192	1
TAP	36	288	0
TAP	36	288	1
HLD	37	0	0	96
HLD	37	0	7	96
BRK	37	192	1
BRK	37	192	6
TAP	38	0	2
TAP	38	96	1
TAP	38	192	0
TAP	38	192	7
TAP	38	288	0
TAP	38	288	7
TAP	39	0	6
TAP	39	96	5
TAP	39	192	3
TAP	39	192	4
TAP	39	288	3
TAP	39	288	4
TAP	40	0	2
TAP	40	96	1
TAP	40	96	3
TAP	40	192	5
TAP	40	288	4
TAP	40	288	6
TAP	41	0	7
TAP	41	96	7
TAP	41	192	0
STR	41	288	0
SI_	41	288	0	96	192	3
STR	41	288	7
SI_	41	288	7	96	192	4
TAP	43	0	2
TAP	43	0	5
TAP	43	96	2
TAP	43	96	5
TAP	43	192	2
TAP	43	192	5
TAP	44	0	4
TAP	44	0	5
TAP	44	96	4
TAP	44	96	5
TAP	44	192	3
TAP	44	192	4
TAP	44	288	3
TAP	44	288	4
TAP	45	0	2
TAP	45	0	3
TAP	45	96	2
TAP	45	96	3
XTP	45	192	1
XTP	45	192	4
TTP	46	0	3	E	0	L1
TTP	46	192	2	E	0	L1
TTP	47	0	1	E	0	L1
TTP	47	192	0	E	0	L1
TTP	48	0	7	E	0	L1
TTP	48	192	6	E	0	L1
THO	49	0	0	192	C	0	L1
TTP	50	0	1	E	0	L1
TTP	50	192	0	C	0	L1
TTP	51	0	5	E	0	L1
TTP	51	192	4	E	0	L1
TTP	52	0	3	E	0	L1
TTP	52	192	2	E	0	L1
TTP	53	0	0	C	0	L1
TTP	53	192	2	B	0	L1
TTP	53	192	5	B	0	L1
TTP	54	0	2	E	0	L1
TTP	54	96	1	B	0	L1
TTP	54	192	0	B	0	L1
TTP	55	0	7	B	0	L1
TTP	55	96	6	B	0	L1
TTP	55	192	6	E	0	L1
TTP	56	0	5	E	0	L1
TTP	56	96	4	B	0	L1
TTP	56	192	3	B	0	L1
TTP	57	0	2	B	0	L1
TTP	57	0	3	E	0	L1
TTP	57	192	5	B	0	L1
TTP	57	192	6	B	0	L1
TTP	58	0	2	E	0	L1
TTP	58	96	2	B	0	L1
TTP	58	192	3	B	0	L1
TTP	59	0	4	B	0	L1
TTP	59	96	5	B	0	L1
TTP	59	192	6	E	0	L1
TTP	60	0	6	B	0	L1
TTP	60	0	7	E	0	L1
TTP	60	192	1	B	0	L1
TTP	60	192	2	B	0	L1
THO	61	0	0	192	C	1	L1
XTP	62	0	0
XTP	62	0	7
XTP	62	96	0
XTP	62	96	7
TAP	62	192	1
TAP	62	288	2
TAP	63	0	3
TAP	63	0	4
TAP	63	96	3
TAP	63	96	4
TAP	63	192	5
TAP	63	288	6
TAP	64	0	1
TAP	64	0	7
TAP	64	96	0
TAP	64	192	1
TAP	64	192	3
TAP	64	288	2
TAP	65	0	3
TAP	65	0	5
TAP	65	96	6
TAP	65	192	0
TAP	65	192	7
STR	65	288	0
SI_	65	288	0	96	192	4
STR	65	288	7
SI_	65	288	7	96	192	3
TAP	67	0	2
TAP	67	0	3
TAP	67	96	1
TAP	67	96	4
TAP	67	192	4
TAP	67	192	5
TAP	67	288	3
TAP	67	288	6
TAP	68	0	6
TAP	68	0	7
TAP	68	96	0
TAP	68	96	5
TAP	68	192	0
TAP	68	192	1
TAP	68	288	2
TAP	68	288	7
TAP	69	0	3
TAP	69	0	6
TAP	69	96	4
TAP	69	96	5
TAP	69	192	3
TAP	69	192	4
TAP	69	288	1
TAP	69	288	6
BRK	69	336	1
BRK	69	336	6

T_REC_TAP	151
T_REC_BRK	4
T_REC_XTP	12
T_REC_HLD	19
T_REC_XHO	0
T_REC_STR	4
T_REC_BST	0
T_REC_XST	0
T_REC_TTP	38
T_REC_THO	2
T_REC_SLD	4
T_REC_ALL	234
T_NUM_TAP	205
T_NUM_BRK	4
T_NUM_HLD	21
T_NUM_SLD	4
T_NUM_ALL	234
T_JUDGE_TAP	209
T_JUDGE_HLD	92
T_JUDGE_SLD	4
T_JUDGE_ALL	305
TTM_EACHPAIRS	55
TTM_SCR_TAP	102500
TTM_SCR_BRK	10400
TTM_SCR_HLD	21000
TTM_SCR_SLD	6000
TTM_SCR_ALL	139900
TTM_SCR_S	135350
TTM_SCR_SS	139500
TTM_RAT_ACV	10028

