VERSION	0.00.00	1.03.00
FES_MODE	0
BPM_DEF	145.000	145.000	145.000	145.000
MET_DEF	4	4
RESOLUTION	384
CLK_DEF	384
COMPATIBLE_CODE	MA2

BPM	0	0	145.000
MET	0	0	4	4

HLD	6	0	3	384
HLD	8	0	4	384
HLD	10	0	3	384
TAP	12	0	4
TAP	12	192	4
TAP	13	0	4
TAP	13	96	4
BRK	13	192	3
BRK	13	192	4
TAP	14	0	5
TAP	14	192	5
TAP	15	0	6
TAP	15	192	6
TAP	16	0	7
TAP	16	192	7
TAP	17	0	0
TAP	17	96	0
TAP	17	192	0
TAP	18	0	1
TAP	18	192	1
TAP	19	0	2
TAP	19	192	2
TAP	20	0	3
TAP	20	192	3
TAP	21	0	4
TAP	21	96	4
XTP	21	192	3
XTP	21	192	4
STR	22	0	3
SI_	22	0	3	96	288	7
STR	24	0	4
SI_	24	0	4	96	288	0
STR	26	0	7
SI_	26	0	7	96	288	3
STR	28	0	0
SI_	28	0	0	96	288	4
TAP	30	0	5
TAP	30	96	5
TAP	30	192	5
TAP	31	0	4
TAP	31	96	4
TAP	31	192	4
TAP	32	0	3
TAP	32	96	3
TAP	32	192	3
TAP	33	0	2
TAP	33	96	2
TAP	33	192	2
TAP	33	192	3
TAP	34	0	3
TAP	34	96	3
TAP	34	192	3
TAP	35	0	4
TAP	35	96	4
TAP	35	192	4
HLD	36	0	5	384
TAP	38	0	6
TAP	38	192	6
TAP	39	0	7
TAP	39	192	7
TAP	40	0	0
TAP	40	192	0
TAP	41	0	1
TAP	41	96	1
TAP	41	192	0
TAP	41	192	1
TAP	42	0	2
TAP	42	192	2
TAP	43	0	3
TAP	43	192	3
TAP	44	0	4
TAP	44	192	4
TAP	45	0	5
TAP	45	96	5
TAP	45	192	4
TAP	45	192	5
STR	46	0	6
SI_	46	0	6	96	288	2
HLD	48	0	0	384
HLD	48	0	1	384
STR	50	0	1
SI_	50	0	1	96	288	5
HLD	52	0	6	384
HLD	52	0	7	384
TAP	54	0	7
TAP	54	96	7
TAP	54	192	7
TAP	55	0	6
TAP	55	96	6
TAP	55	192	6
TAP	56	0	5
TAP	56	96	5
TAP	56	192	5
TAP	57	0	4
TAP	57	96	4
TAP	57	192	3
TAP	57	192	4
TAP	58	0	2
TAP	58	96	2
TAP	58	192	2
TAP	58	192	3
TAP	59	0	5
TAP	59	96	5
TAP	59	192	4
TAP	59	192	5
TAP	60	0	3
TAP	60	96	3
TAP	60	192	2
TAP	60	192	3
TAP	61	0	4
TAP	61	96	4
XTP	61	192	4
XTP	61	192	5
TAP	62	0	3
TAP	62	96	3
TAP	62	192	2
TAP	62	288	2
TAP	63	0	1
TAP	63	96	1
TAP	63	192	0
TAP	63	192	7
TAP	64	0	7
TAP	64	96	7
TAP	64	192	6
TAP	64	288	6
TAP	65	0	5
TAP	65	96	5
TAP	65	192	3
TAP	65	192	4
TTP	66	0	3	B	0	L1
TTP	66	0	4	B	0	L1
TTP	67	0	2	B	0	L1
TTP	67	0	5	B	0	L1
TTP	68	0	1	B	0	L1
TTP	68	0	6	B	0	L1
THO	69	0	0	336	C	0	L1

T_REC_TAP	103
T_REC_BRK	2
T_REC_XTP	4
T_REC_HLD	8
T_REC_XHO	0
T_REC_STR	6
T_REC_BST	0
T_REC_XST	0
T_REC_TTP	6
T_REC_THO	1
T_REC_SLD	6
T_REC_ALL	136
T_NUM_TAP	119
T_NUM_BRK	2
T_NUM_HLD	9
T_NUM_SLD	6
T_NUM_ALL	136
T_JUDGE_TAP	121
T_JUDGE_HLD	71
T_JUDGE_SLD	6
T_JUDGE_ALL	198
TTM_EACHPAIRS	14
TTM_SCR_TAP	59500
TTM_SCR_BRK	5200
TTM_SCR_HLD	9000
TTM_SCR_SLD	9000
TTM_SCR_ALL	82700
TTM_SCR_S	80050
TTM_SCR_SS	82500
TTM_RAT_ACV	10024

