VERSION	0.00.00	1.03.00
FES_MODE	0
BPM_DEF	165.000	165.000	165.000	165.000
MET_DEF	4	4
RESOLUTION	384
CLK_DEF	384
COMPATIBLE_CODE	MA2

BPM	0	0	165.000
MET	0	0	4	4

XTP	2	0	1
XTP	2	0	6
TAP	2	144	2
TAP	2	168	3
HLD	2	192	2	144
TAP	2	336	5
TAP	2	360	4
HLD	3	0	5	144
TAP	3	144	2
TAP	3	168	3
HLD	3	192	1	144
TAP	3	336	5
TAP	3	360	4
TAP	4	0	6
HLD	4	96	4	96
TAP	4	96	6
TAP	4	192	5
TAP	4	288	3
HLD	4	288	4	96
TAP	5	0	2
HLD	5	96	1	96
TAP	5	96	3
TAP	5	192	0
TAP	5	288	1
TAP	5	288	7
XTP	6	0	2
XTP	6	0	6
TAP	6	144	5
TAP	6	168	4
HLD	6	192	5	144
TAP	6	336	2
TAP	6	360	3
HLD	7	0	2	144
TAP	7	144	5
TAP	7	168	4
HLD	7	192	6	144
TAP	7	336	2
TAP	7	360	3
TAP	8	0	1
TAP	8	96	1
HLD	8	96	3	96
TAP	8	192	2
HLD	8	288	3	96
TAP	8	288	4
TAP	9	0	5
TAP	9	96	4
HLD	9	96	6	96
TAP	9	192	7
TAP	9	288	0
TAP	9	288	6
XTP	10	0	1
XTP	10	0	5
TAP	10	96	0
TAP	10	144	2
TAP	10	168	3
HLD	10	192	2	96
TAP	10	288	7
TAP	10	336	5
TAP	10	360	4
HLD	11	0	5	96
TAP	11	96	0
TAP	11	144	2
TAP	11	168	3
TAP	11	192	2
TAP	11	288	0
TAP	11	288	7
TAP	11	336	5
TAP	11	360	4
HLD	12	0	6	48
TAP	12	48	2
TAP	12	72	3
HLD	12	96	1	48
TAP	12	144	6
TAP	12	168	7
HLD	12	192	5	48
TAP	12	240	1
TAP	12	264	0
HLD	12	288	2	48
TAP	12	336	5
TAP	12	360	4
HLD	13	0	6	48
TAP	13	48	2
TAP	13	72	3
HLD	13	96	1	48
TAP	13	144	6
TAP	13	168	7
HLD	13	192	5	48
TAP	13	240	0
TAP	13	264	7
TAP	13	288	0
XTP	13	336	1
XTP	13	336	6
TAP	14	0	2
TAP	14	24	3
TAP	14	48	2
TAP	14	72	3
TAP	14	96	1
TAP	14	120	4
TAP	14	144	1
TAP	14	168	4
TAP	14	192	0
TAP	14	216	5
TAP	14	240	0
TAP	14	264	5
TAP	14	288	7
TAP	14	312	6
TAP	14	336	7
TAP	14	360	6
TAP	15	0	1
TAP	15	24	0
TAP	15	48	1
TAP	15	72	0
TAP	15	96	2
TAP	15	120	7
TAP	15	144	2
TAP	15	168	7
TAP	15	192	3
TAP	15	216	6
TAP	15	240	3
TAP	15	264	6
TAP	15	288	4
TAP	15	312	5
TAP	15	336	4
TAP	15	360	5
HLD	16	0	2	48
TAP	16	48	4
TAP	16	72	3
HLD	16	96	5	48
TAP	16	144	2
TAP	16	168	3
HLD	16	192	1	48
TAP	16	240	5
TAP	16	264	4
TAP	16	288	6
TAP	16	336	0
TAP	16	336	7
XTP	17	0	1
XTP	17	0	6
TAP	17	96	0
TAP	17	96	4
HLD	17	192	4	48
HLD	17	192	6	48
HLD	17	264	1	48
HLD	17	264	3	48
TAP	17	336	0
TAP	17	336	7
BRK	18	0	1
BRK	18	0	6
STR	19	0	4
SCR	19	0	4	96	624	3
HLD	19	192	3	96
HLD	20	0	2	96
TAP	20	192	0
STR	20	288	0
SCR	20	288	0	96	576	6
HLD	21	0	4	96
HLD	21	192	5	96
HLD	22	0	7	96
TAP	22	192	0
STR	22	288	0
SCR	22	288	0	96	960	7
TAP	23	0	5
TAP	23	96	4
TAP	23	192	3
TAP	23	288	1
TAP	24	0	0
TAP	24	96	7
TAP	24	192	6
TAP	24	288	4
TAP	25	0	3
TAP	25	96	2
TAP	25	192	1
TAP	25	288	0
TAP	26	0	4
TAP	26	0	6
TAP	26	96	1
TAP	26	96	3
TAP	26	192	1
TAP	26	192	6
TAP	26	240	2
TAP	26	240	5
STR	26	288	3
SXR	26	288	3	96	336	0
STR	26	288	4
SXL	26	288	4	96	336	7
TAP	26	336	3
TAP	26	336	4
XTP	28	0	1
XTP	28	0	6
TAP	28	96	3
TAP	28	96	4
TAP	28	192	2
TAP	28	216	3
TAP	28	240	2
BST	28	288	1
SLR	28	288	1	96	144	0
BST	28	288	5
SLL	28	288	5	96	144	6
XTP	29	192	1
XTP	29	192	5
TAP	29	240	2
TAP	29	264	1
TAP	29	264	3
TAP	29	312	5
TAP	29	336	4
TAP	29	336	6
TAP	30	0	1
TAP	30	24	0
TAP	30	48	2
TAP	30	72	7
TAP	30	96	3
TAP	30	120	6
TAP	30	144	4
TAP	30	168	5
XTP	30	192	3
XTP	30	192	6
STR	30	288	2
SCL	30	288	2	96	48	7
TAP	30	312	3
TAP	30	336	1
TAP	30	360	3
STR	31	0	2
SCR	31	0	2	96	48	5
BRK	31	192	2
BRK	31	192	6
XTP	31	288	0
XTP	31	312	0
XTP	31	336	0
XTP	31	360	0
XTP	32	0	0
TAP	32	48	6
TAP	32	72	5
TAP	32	72	7
TAP	32	120	2
TAP	32	144	1
TAP	32	144	3
TTP	32	192	6	B	0	M1
TTP	32	192	6	E	0	M1
TTP	32	240	2	B	0	M1
TTP	32	240	2	E	0	M1
TTP	32	288	7	B	0	M1
TTP	32	312	1	B	0	M1
TTP	32	336	5	B	0	M1
TTP	32	360	3	B	0	M1
THO	33	0	0	192	C	1	M1
STR	33	96	1
SI_	33	96	1	96	48	5
BRK	33	192	1
TAP	33	288	0
TAP	33	288	7
TAP	33	336	1
TAP	33	336	6
TAP	34	0	2
TAP	34	24	3
TAP	34	48	2
XTP	34	72	1
XTP	34	72	4
TAP	34	120	6
TAP	34	144	6
BST	34	192	0
SSL	34	192	0	96	48	4
BRK	34	192	4
XTP	34	288	0
XST	34	288	5
SCR	34	288	5	96	96	2
XTP	35	192	2
XTP	35	192	6
TAP	35	288	1
TAP	35	312	0
TAP	35	336	1
TAP	35	360	0
XTP	36	0	2
XTP	36	0	7
TAP	36	48	5
TAP	36	72	4
TAP	36	72	6
TAP	36	120	2
TAP	36	144	1
TAP	36	144	3
STR	36	192	6
SI_	36	192	6	96	24	2
TAP	36	216	7
TAP	36	240	6
TAP	36	264	7
STR	36	288	6
SXL	36	288	6	96	144	1
SXR	36	288	6	96	144	3
XTP	37	192	0
XTP	37	192	4
TAP	37	240	5
TAP	37	264	4
TAP	37	264	6
TAP	37	312	2
TAP	37	336	1
TAP	37	336	3
TAP	38	0	6
TAP	38	24	7
TAP	38	48	5
TAP	38	72	0
TAP	38	96	4
TAP	38	120	1
TAP	38	144	3
TAP	38	168	2
XTP	38	192	1
XTP	38	192	4
STR	38	288	5
SCR	38	288	5	96	48	0
TAP	38	312	4
TAP	38	336	6
TAP	38	360	4
STR	39	0	5
SCL	39	0	5	96	48	2
BRK	39	192	1
BRK	39	192	5
XTP	39	288	7
XTP	39	312	7
XTP	39	336	7
XTP	39	360	7
XTP	40	0	7
TAP	40	48	1
TAP	40	72	0
TAP	40	72	2
TAP	40	120	5
TAP	40	144	4
TAP	40	144	6
TTP	40	192	2	B	0	M1
TTP	40	192	2	E	0	M1
TTP	40	240	6	B	0	M1
TTP	40	240	6	E	0	M1
TTP	40	288	1	B	0	M1
TTP	40	312	7	B	0	M1
TTP	40	336	3	B	0	M1
TTP	40	360	5	B	0	M1
THO	41	0	0	192	C	1	M1
STR	41	96	6
SI_	41	96	6	96	48	2
BRK	41	192	6
TAP	41	288	0
TAP	41	288	7
TAP	41	336	1
TAP	41	336	6
TAP	42	0	5
TAP	42	24	4
TAP	42	48	5
XTP	42	72	3
XTP	42	72	6
TAP	42	120	1
TAP	42	144	1
BRK	42	192	3
BST	42	192	7
SSR	42	192	7	96	48	3
XST	42	288	2
SCL	42	288	2	96	96	5
XTP	42	288	7
XTP	43	192	1
XTP	43	192	5
TAP	43	288	6
TAP	43	312	7
TAP	43	336	6
TAP	43	360	7
XTP	44	0	0
XTP	44	0	5
TAP	44	48	2
TAP	44	72	1
TAP	44	72	3
TAP	44	120	5
TAP	44	144	4
TAP	44	144	6
XST	44	192	0
SI_	44	192	0	96	24	3
SI_	44	192	0	96	24	5
XTP	44	216	0
XTP	44	240	0
XTP	44	264	0
BRK	45	0	2
BRK	45	0	6
HLD	45	192	5	192
HLD	46	0	3	192
HLD	46	192	1	192
HLD	47	0	7	288
TAP	47	192	5
STR	47	288	5
SCL	47	288	5	96	288	6
TTP	48	0	3	B	0	M1
TTP	48	0	4	B	0	M1
TTP	48	0	4	E	0	M1
TTP	48	96	0	B	0	M1
TTP	48	96	0	E	0	M1
TTP	48	96	7	B	0	M1
TTP	48	192	0	C	0	M1
HLD	49	0	1	192
HLD	49	192	3	192
HLD	50	0	5	192
HLD	50	192	7	192
HLD	51	0	1	288
TAP	51	192	3
STR	51	288	3
SCR	51	288	3	96	288	2
TTP	52	0	0	B	0	M1
TTP	52	0	0	E	0	M1
TTP	52	0	7	B	0	M1
TTP	52	96	3	B	0	M1
TTP	52	96	4	B	0	M1
TTP	52	96	4	E	0	M1
TTP	52	192	0	C	0	M1
TAP	53	0	2
TAP	53	0	6
HLD	53	96	7	48
TAP	53	144	2
TAP	53	168	2
HLD	53	192	3	96
HLD	53	288	0	48
TAP	53	336	5
TAP	53	360	5
HLD	54	0	4	96
HLD	54	96	7	48
TAP	54	144	2
TAP	54	168	2
TAP	54	192	3
TAP	54	288	6
TAP	54	288	7
TAP	55	0	0
TAP	55	0	5
HLD	55	96	7	48
TAP	55	144	2
TAP	55	168	2
HLD	55	192	3	96
HLD	55	288	0	48
TAP	55	336	5
TAP	55	360	5
HLD	56	0	4	96
TAP	56	96	7
TAP	56	144	0
TAP	56	144	1
TAP	56	192	2
TAP	56	192	3
TAP	56	240	4
TAP	56	240	5
TAP	56	288	6
TAP	56	288	7
TAP	56	336	0
TAP	56	336	5
TAP	57	0	1
TAP	57	24	0
TAP	57	48	2
TAP	57	72	7
TAP	57	96	3
TAP	57	120	6
TAP	57	144	4
TAP	57	168	5
TAP	57	192	7
TAP	57	216	6
TAP	57	240	0
TAP	57	264	5
TAP	57	288	1
TAP	57	312	4
TAP	57	336	2
TAP	57	360	3
TAP	58	0	1
TAP	58	24	0
TAP	58	48	1
TAP	58	72	0
TAP	58	96	2
TAP	58	120	3
TAP	58	144	2
TAP	58	168	3
TAP	58	192	7
TAP	58	216	6
TAP	58	240	7
TAP	58	264	6
TAP	58	288	4
TAP	58	312	5
TAP	58	336	4
TAP	58	360	5
TAP	59	0	2
TAP	59	24	2
TAP	59	48	3
TAP	59	72	3
TAP	59	96	4
TAP	59	120	4
TAP	59	144	5
TAP	59	168	5
TAP	59	192	6
TAP	59	216	6
TAP	59	240	7
TAP	59	264	7
XTP	59	288	1
XTP	59	300	2
XTP	59	312	3
XTP	59	324	4
XTP	59	336	5
XTP	59	348	6
XTP	59	360	7
XTP	59	372	0
XTP	60	0	1
XTP	60	0	5
TAP	60	96	3
TAP	60	96	7
HLD	60	192	1	48
HLD	60	192	3	48
HLD	60	264	4	48
HLD	60	264	6	48
TAP	60	336	0
TAP	60	336	7
STR	61	0	1
SI_	61	0	1	96	48	4
STR	61	0	6
SI_	61	0	6	96	48	3
XTP	61	96	1
XTP	61	96	6
BRK	61	192	1
BRK	61	192	6
XTP	61	288	1
XTP	61	288	5
XTP	61	312	2
XTP	61	312	6
XTP	61	336	3
XTP	61	336	7
XTP	61	360	0
XTP	61	360	4
XST	62	0	1
SI_	62	0	1	96	48	6
XST	62	0	5
SI_	62	0	5	96	48	2
STR	62	96	1
SCL	62	96	1	96	96	3
TAP	62	96	5
TAP	62	192	1
TAP	62	192	5
BRK	62	336	1
BRK	62	336	5
TAP	63	48	0
HLD	63	48	4	96
TAP	63	96	1
HLD	63	144	2	96
TAP	63	192	1
TAP	63	240	0
XST	63	288	3
SXL	63	288	3	96	240	7
XTP	63	288	7
XTP	63	312	2
XTP	63	312	6
XTP	63	336	1
XTP	63	336	5
XTP	63	360	0
XTP	63	360	4
XTP	64	0	3
XTP	64	0	7
STR	64	96	0
SCR	64	96	0	96	48	3
BRK	64	192	0
TAP	64	288	6
TAP	64	288	7
TAP	64	336	0
TAP	64	336	5
TAP	65	48	3
TAP	65	48	4
TAP	65	96	2
TAP	65	144	0
TAP	65	144	1
TAP	65	192	2
TAP	65	192	7
XTP	65	288	2
XTP	65	288	6
XTP	65	312	1
XTP	65	312	5
XTP	65	336	0
XTP	65	336	4
XTP	65	360	3
XTP	65	360	7
XST	66	0	2
SI_	66	0	2	96	48	5
XST	66	0	6
SI_	66	0	6	96	48	1
TAP	66	96	2
STR	66	96	6
SCR	66	96	6	96	96	4
TAP	66	192	2
TAP	66	192	6
BRK	66	336	2
BRK	66	336	6
HLD	67	48	3	96
TAP	67	48	7
TAP	67	96	6
HLD	67	144	5	96
TAP	67	192	6
TAP	67	240	7
XTP	67	288	0
XST	67	288	4
SXR	67	288	4	96	240	0
XTP	67	312	1
XTP	67	312	5
XTP	67	336	2
XTP	67	336	6
XTP	67	360	3
XTP	67	360	7
XTP	68	0	0
XTP	68	0	4
STR	68	96	7
SCL	68	96	7	96	48	4
BRK	68	192	7
TAP	68	288	1
TAP	68	288	5
TAP	68	336	2
TAP	69	0	3
TAP	69	0	7
TAP	69	48	6
BRK	69	96	1
BRK	69	96	5
TTP	69	192	1	B	0	M1
TTP	69	216	7	B	0	M1
TTP	69	240	3	B	0	M1
TTP	69	264	5	B	0	M1
TTP	69	288	1	E	0	M1
TTP	69	312	7	E	0	M1
TTP	69	336	3	E	0	M1
TTP	69	360	5	E	0	M1
TTP	70	0	0	C	0	M1
TTP	70	96	6	B	0	M1
TTP	70	96	7	B	0	M1
TTP	70	96	7	E	0	M1
TTP	70	144	1	E	0	M1
TTP	70	168	3	B	0	M1
TTP	70	192	2	B	0	M1
TTP	70	192	2	E	0	M1
TTP	70	192	3	E	0	M1
TTP	70	288	0	B	0	M1
TTP	70	288	1	B	0	M1
TTP	70	288	1	E	0	M1
TTP	70	336	7	E	0	M1
TTP	70	360	4	B	0	M1
TTP	71	0	5	B	0	M1
TTP	71	0	5	E	0	M1
TTP	71	0	6	E	0	M1
TTP	71	96	6	B	0	M1
TTP	71	96	7	B	0	M1
TTP	71	96	7	E	0	M1
TTP	71	144	1	E	0	M1
TTP	71	168	3	B	0	M1
TTP	71	192	2	B	0	M1
TTP	71	192	2	E	0	M1
TTP	71	192	3	E	0	M1
TTP	71	288	1	E	0	M1
TTP	71	312	0	B	0	M1
TTP	71	336	7	B	0	M1
TTP	71	360	7	E	0	M1
TTP	72	0	0	C	0	M1
TTP	72	96	4	B	0	M1
TTP	72	96	5	B	0	M1
TTP	72	96	5	E	0	M1
TTP	72	144	3	E	0	M1
TTP	72	168	0	B	0	M1
TTP	72	192	1	B	0	M1
TTP	72	192	1	E	0	M1
TTP	72	192	2	E	0	M1
TTP	72	288	4	B	0	M1
TTP	72	288	4	E	0	M1
TTP	72	288	5	B	0	M1
TTP	72	288	6	E	0	M1
TAP	73	0	1
TAP	73	0	3
TAP	73	48	2
TAP	73	96	3
TAP	73	96	4
TAP	73	144	5
TAP	73	192	4
TAP	73	192	6
TAP	73	240	0
TAP	73	240	7
BRK	73	288	1
BRK	73	288	6
TAP	74	0	6
TAP	74	24	7
TAP	74	48	5
TAP	74	72	0
TAP	74	96	4
TAP	74	120	1
TAP	74	144	3
TAP	74	168	2
TAP	74	192	0
TAP	74	216	1
TAP	74	240	7
TAP	74	264	2
TAP	74	288	6
TAP	74	312	3
TAP	74	336	5
TAP	74	360	4
TAP	75	0	6
TAP	75	24	7
TAP	75	48	6
TAP	75	72	7
TAP	75	96	5
TAP	75	120	4
TAP	75	144	5
TAP	75	168	4
TAP	75	192	0
TAP	75	216	1
TAP	75	240	0
TAP	75	264	1
TAP	75	288	3
TAP	75	312	2
TAP	75	336	3
TAP	75	360	2
TAP	76	0	5
TAP	76	24	5
TAP	76	48	4
TAP	76	72	6
TAP	76	96	2
TAP	76	120	2
TAP	76	144	3
TAP	76	168	1
TAP	76	192	5
TAP	76	216	5
TAP	76	240	4
TAP	76	264	7
TAP	76	288	2
TAP	76	312	2
TAP	76	336	3
TAP	76	360	0
XTP	77	0	1
XTP	77	0	5
TAP	77	96	0
TAP	77	96	4
HLD	77	192	4	48
HLD	77	192	6	48
HLD	77	264	1	48
HLD	77	264	3	48
TAP	77	336	0
TAP	77	336	7
BST	78	0	1
SUR	78	0	1	96	96	5
BRK	78	0	6
STR	78	96	5
SCL	78	96	5	96	96	1
STR	78	192	1
SCL	78	192	1	96	96	5
TAP	78	288	5
STR	79	0	3
SUR	79	0	3	96	96	7
STR	79	96	7
SCR	79	96	7	96	96	3
STR	79	192	3
SCR	79	192	3	96	96	7
TAP	79	288	0
STR	80	0	2
SUL	80	0	2	96	96	6
STR	80	96	6
SCR	80	96	6	96	96	2
STR	80	192	2
SCR	80	192	2	96	96	6
TAP	80	288	6
STR	81	0	0
SXR	81	0	0	96	192	5
TAP	81	96	3
TAP	81	192	2
BRK	81	288	1
TAP	82	0	6
STR	82	0	7
SCR	82	0	7	96	192	5
TAP	82	96	2
TAP	82	192	5
TAP	82	288	0
STR	83	0	0
SCL	83	0	0	96	192	2
TAP	83	0	2
TAP	83	96	5
TAP	83	192	2
TAP	83	288	7
TAP	84	0	5
STR	84	0	7
SCR	84	0	7	96	96	2
STR	84	96	2
SCR	84	96	2	96	96	5
STR	84	192	5
SCR	84	192	5	96	96	0
STR	84	288	0
SCR	84	288	0	96	96	3
STR	85	0	3
SI_	85	0	3	96	96	7
TAP	85	96	7
XTP	85	192	6
XTP	85	216	5
XTP	85	240	4
XTP	85	264	3
XTP	85	288	2
XTP	85	312	1
XTP	85	336	0
XTP	85	360	7
BST	86	0	1
SI_	86	0	1	96	48	5
BRK	86	0	6
STR	86	96	1
SLR	86	96	1	96	192	7
TAP	86	96	3
TAP	86	192	0
TAP	86	192	1
TAP	86	288	5
STR	87	0	6
SI_	87	0	6	96	48	2
TAP	87	96	4
STR	87	96	6
SLL	87	96	6	96	192	0
TAP	87	192	6
TAP	87	192	7
TAP	87	288	3
STR	88	0	2
SI_	88	0	2	96	48	6
TAP	88	96	0
STR	88	96	2
SLL	88	96	2	96	192	4
TAP	88	192	2
TAP	88	192	3
TAP	88	288	7
STR	89	0	5
SI_	89	0	5	96	48	1
STR	89	96	7
SCL	89	96	7	96	48	4
SCR	89	96	7	96	48	2
TAP	89	192	7
BRK	89	288	1
BRK	89	288	5
STR	90	0	6
SCR	90	0	6	96	48	1
TAP	90	96	4
STR	90	96	6
SLL	90	96	6	96	192	0
TAP	90	192	0
TAP	90	192	6
TAP	90	288	2
STR	91	0	1
SCL	91	0	1	96	48	6
STR	91	96	1
SLR	91	96	1	96	192	7
TAP	91	96	3
TAP	91	192	1
TAP	91	192	7
TAP	91	288	6
STR	92	0	5
SCL	92	0	5	96	48	2
STR	92	96	5
SLR	92	96	5	96	192	3
TAP	92	96	7
TAP	92	192	3
TAP	92	192	5
TAP	92	288	2
STR	93	0	1
SI_	93	0	1	96	48	3
SI_	93	0	1	96	48	7
STR	93	96	1
SI_	93	96	1	96	48	5
STR	93	192	1
SCR	93	192	1	96	48	4
STR	93	192	5
SCR	93	192	5	96	48	0
TAP	93	288	1
TAP	93	288	5
BRK	94	0	2
BRK	94	0	6
TAP	94	192	1
TAP	94	216	0
TAP	94	240	1
TAP	94	264	0
BRK	94	288	1
TAP	94	300	2
TAP	94	312	3
BRK	94	336	7
TAP	94	348	6
TAP	94	360	5
TAP	95	0	2
TAP	95	24	3
TAP	95	48	2
TAP	95	72	3
BRK	95	96	2
TAP	95	108	1
TAP	95	120	0
BRK	95	144	4
TAP	95	156	5
TAP	95	168	6
BRK	95	192	1
TAP	95	204	2
TAP	95	216	3
BRK	95	240	7
TAP	95	252	6
TAP	95	264	5
BRK	95	288	0
TAP	95	300	1
TAP	95	312	2
TAP	95	324	3
TAP	95	336	4
TAP	95	348	5
TAP	95	360	6
TAP	95	372	7
BRK	96	0	0
BST	96	0	4
SCL	96	0	4	96	672	4
SCL	96	0	4	96	672	4

T_REC_TAP	464
T_REC_BRK	39
T_REC_XTP	103
T_REC_HLD	63
T_REC_XHO	0
T_REC_STR	54
T_REC_BST	7
T_REC_XST	9
T_REC_TTP	80
T_REC_THO	2
T_REC_SLD	75
T_REC_ALL	896
T_NUM_TAP	710
T_NUM_BRK	46
T_NUM_HLD	65
T_NUM_SLD	75
T_NUM_ALL	896
T_JUDGE_TAP	756
T_JUDGE_HLD	135
T_JUDGE_SLD	75
T_JUDGE_ALL	966
TTM_EACHPAIRS	146
TTM_SCR_TAP	355000
TTM_SCR_BRK	119600
TTM_SCR_HLD	65000
TTM_SCR_SLD	112500
TTM_SCR_ALL	652100
TTM_SCR_S	628100
TTM_SCR_SS	647500
TTM_RAT_ACV	10071

