VERSION	0.00.00	1.03.00
FES_MODE	0
BPM_DEF	165.000	165.000	165.000	165.000
MET_DEF	4	4
RESOLUTION	384
CLK_DEF	384
COMPATIBLE_CODE	MA2

BPM	0	0	165.000
MET	0	0	4	4

THO	1	0	0	384	C	0	M1
TTP	1	0	5	B	0	M1
TTP	1	0	6	B	0	M1
BRK	2	0	7
TAP	2	144	6
HLD	2	192	6	144
TAP	2	336	4
HLD	3	0	4	144
TAP	3	144	5
HLD	3	192	5	144
TAP	3	336	2
HLD	4	0	2	144
TAP	4	144	3
HLD	4	192	3	144
TAP	4	336	1
TAP	5	0	1
TAP	5	0	3
TAP	5	96	2
TAP	5	192	4
TAP	5	288	6
HLD	6	0	1	144
BRK	6	0	7
TAP	6	144	3
HLD	6	192	3	144
TAP	6	336	2
HLD	7	0	2	144
TAP	7	144	5
HLD	7	192	5	144
TAP	7	336	4
HLD	8	0	4	144
TAP	8	144	6
HLD	8	192	6	144
TAP	8	336	4
TAP	9	0	4
TAP	9	0	6
TAP	9	96	7
TAP	9	192	0
TAP	9	192	6
TAP	9	288	2
TAP	9	288	4
HLD	10	0	1	288
BRK	10	0	5
TAP	10	96	5
TAP	10	192	3
TAP	10	288	3
TAP	11	0	2
HLD	11	0	6	288
TAP	11	96	2
TAP	11	192	4
TAP	11	288	4
STR	12	0	5
SCL	12	0	5	96	96	2
TAP	12	192	1
TAP	12	288	1
TAP	12	288	3
STR	13	0	2
SCR	13	0	2	96	96	5
TAP	13	192	6
TAP	13	288	4
TAP	13	288	6
TAP	14	0	5
TAP	14	48	5
TAP	14	96	1
TAP	14	144	1
TAP	14	192	3
TAP	14	240	3
HLD	14	288	0	96
TAP	15	0	4
TAP	15	48	4
TAP	15	96	2
TAP	15	144	2
TAP	15	192	7
TAP	15	240	7
HLD	15	288	4	96
TAP	16	0	6
TAP	16	48	6
TAP	16	96	3
TAP	16	144	3
TAP	16	192	4
TAP	16	240	4
TAP	16	288	1
TAP	16	336	1
XHO	17	0	1	96
XHO	17	0	7	96
XTP	17	192	0
XTP	17	192	6
XTP	17	264	1
XTP	17	264	5
XTP	17	336	2
XTP	17	336	4
BST	18	0	2
SUL	18	0	2	96	96	5
BRK	18	0	4
TTP	19	0	3	B	0	M1
TTP	19	0	4	E	0	M1
TTP	19	192	6	B	0	M1
TTP	19	192	6	E	0	M1
TTP	20	0	2	B	0	M1
TTP	20	0	2	E	0	M1
TTP	20	192	0	E	0	M1
TTP	20	192	7	B	0	M1
TTP	21	0	1	E	0	M1
TTP	21	96	0	C	0	M1
TTP	21	192	3	E	0	M1
TTP	21	288	4	E	0	M1
TTP	22	0	5	E	0	M1
TTP	22	96	0	C	0	M1
TTP	22	192	1	E	0	M1
TTP	22	192	7	E	0	M1
TTP	23	0	0	B	0	M1
TTP	23	0	0	E	0	M1
TTP	23	192	5	B	0	M1
TTP	23	192	6	E	0	M1
TTP	24	0	1	B	0	M1
TTP	24	0	2	E	0	M1
TTP	24	192	4	B	0	M1
TTP	24	192	4	E	0	M1
TTP	25	0	3	E	0	M1
TTP	25	96	1	E	0	M1
TTP	25	192	7	E	0	M1
TTP	25	288	5	E	0	M1
TTP	26	0	2	E	0	M1
TTP	26	96	0	E	0	M1
TTP	26	192	6	E	0	M1
TTP	26	288	4	E	0	M1
THO	27	0	0	384	C	0	M1
TTP	27	0	1	B	0	M1
TTP	27	0	2	B	0	M1
TTP	27	0	5	B	0	M1
TTP	27	0	6	B	0	M1
TAP	28	192	1
TAP	28	192	6
STR	28	288	0
SCR	28	288	0	96	120	5
HLD	28	288	7	96
XTP	29	192	6
TAP	29	288	6
TAP	29	288	7
STR	30	0	0
SI_	30	0	0	96	48	4
TAP	30	0	1
STR	30	96	2
SCL	30	96	2	96	120	5
XTP	30	192	5
TAP	31	0	2
STR	31	0	3
SI_	31	0	3	96	48	7
STR	31	96	1
SCR	31	96	1	96	120	6
XTP	31	192	6
STR	32	0	0
SI_	32	0	0	96	48	2
STR	32	0	7
SI_	32	0	7	96	48	3
BRK	32	192	0
STR	33	0	4
SI_	33	0	4	96	48	0
TAP	33	0	5
STR	33	96	6
SLL	33	96	6	96	96	2
XTP	33	192	2
TAP	34	0	1
TAP	34	48	1
STR	34	96	1
SLR	34	96	1	96	96	5
TAP	34	96	7
XTP	34	192	5
STR	35	0	6
SI_	35	0	6	96	48	2
TAP	35	96	2
XST	35	192	0
SSL	35	192	0	96	96	4
TAP	35	288	5
TAP	36	0	5
STR	36	96	4
SI_	36	96	4	96	48	0
TAP	36	96	5
TAP	36	192	6
XST	36	288	7
SCL	36	288	7	96	120	2
XTP	37	0	2
BRK	37	192	1
TAP	37	288	0
TAP	37	288	1
TAP	38	0	6
STR	38	0	7
SI_	38	0	7	96	48	3
STR	38	96	4
SCR	38	96	4	96	120	1
XTP	38	192	1
TAP	39	0	2
STR	39	0	3
SI_	39	0	3	96	48	7
STR	39	96	0
SCR	39	96	0	96	120	5
XTP	39	192	5
STR	40	0	0
SI_	40	0	0	96	48	4
STR	40	0	7
SI_	40	0	7	96	48	5
BRK	40	192	7
TAP	41	0	2
STR	41	0	3
SI_	41	0	3	96	48	7
STR	41	96	1
SLR	41	96	1	96	96	5
XTP	41	192	5
TAP	42	0	6
TAP	42	48	6
TAP	42	96	0
STR	42	96	6
SLL	42	96	6	96	96	2
XTP	42	192	2
STR	43	0	1
SI_	43	0	1	96	48	5
TAP	43	96	5
STR	43	192	7
SSR	43	192	7	96	96	3
TAP	44	0	2
TAP	44	96	2
STR	44	96	3
SI_	44	96	3	96	48	7
TAP	44	192	2
TAP	44	288	1
BRK	45	0	0
BRK	45	0	6
TAP	45	192	2
HLD	46	0	2	768
TAP	46	0	4
TAP	46	192	4
TAP	47	0	3
TAP	47	192	3
THO	48	0	0	192	C	0	M1
HLD	49	0	1	1152
TAP	49	0	6
TAP	49	192	6
TAP	50	0	4
TAP	50	192	4
TAP	51	0	2
TAP	51	192	2
THO	52	0	0	192	C	0	M1
BRK	53	0	0
BRK	53	0	7
TAP	53	96	2
TAP	53	96	3
TAP	53	144	1
TAP	53	192	0
TAP	53	192	6
TAP	53	288	4
TAP	53	288	5
TAP	53	336	6
TAP	54	0	1
TAP	54	0	7
TAP	54	96	1
TAP	54	96	3
TAP	54	144	0
TAP	54	192	6
TAP	54	192	7
TAP	54	288	4
TAP	54	288	5
TAP	55	0	0
TAP	55	0	6
TAP	55	96	3
TAP	55	96	4
TAP	55	144	2
TAP	55	192	0
TAP	55	192	1
TAP	55	288	3
TAP	55	288	4
TAP	55	336	5
TAP	56	0	6
TAP	56	0	7
TAP	56	96	3
TAP	56	96	5
TAP	56	144	2
TAP	56	144	6
TAP	56	192	1
TAP	56	192	7
BRK	56	288	0
BRK	56	288	4
TAP	57	0	3
TAP	57	0	5
TAP	57	48	6
TAP	57	96	7
TAP	57	144	0
TAP	57	192	1
TAP	57	192	4
TAP	57	240	2
TAP	57	288	3
TAP	57	288	7
TAP	58	0	2
TAP	58	0	4
TAP	58	48	1
TAP	58	96	0
TAP	58	144	7
TAP	58	192	3
TAP	58	192	6
TAP	58	240	5
TAP	58	288	0
TAP	58	288	4
TAP	59	0	1
TAP	59	48	1
TAP	59	96	6
TAP	59	144	6
TAP	59	192	0
TAP	59	216	7
TAP	59	240	0
TAP	59	264	7
TAP	59	288	0
TAP	59	312	7
TAP	59	336	0
XTP	60	0	1
XTP	60	0	6
XTP	60	96	3
XTP	60	96	4
TTP	60	192	0	C	1	M1
TTP	60	192	1	B	0	M1
TTP	60	192	5	B	0	M1
STR	61	0	0
SI_	61	0	0	96	48	4
STR	61	0	6
SI_	61	0	6	96	48	3
XTP	61	192	2
XTP	61	192	5
TAP	61	288	3
TAP	61	288	4
HLD	62	0	1	48
HLD	62	0	3	48
HLD	62	96	4	48
HLD	62	96	6	48
XTP	62	192	3
XTP	62	192	4
TAP	62	288	2
TAP	62	288	7
XHO	62	336	2	96
XHO	62	336	7	96
STR	63	96	2
SI_	63	96	2	96	48	6
TAP	63	96	7
BRK	63	192	6
XST	63	288	0
SCR	63	288	0	96	120	5
XHO	63	288	5	96
HLD	64	192	6	144
TAP	64	288	0
BRK	64	336	0
TAP	65	48	1
TAP	65	48	7
STR	65	96	1
SI_	65	96	1	96	48	4
STR	65	96	7
SI_	65	96	7	96	48	3
XTP	65	288	2
XTP	65	288	5
HLD	66	0	4	48
HLD	66	0	6	48
HLD	66	96	1	48
HLD	66	96	3	48
XTP	66	192	3
XTP	66	192	4
TAP	66	288	0
TAP	66	288	5
XHO	66	336	0	96
XHO	66	336	5	96
TAP	67	96	0
STR	67	96	5
SI_	67	96	5	96	48	1
BRK	67	192	1
XHO	67	288	2	96
XST	67	288	7
SCL	67	288	7	96	120	2
HLD	68	192	1	96
STR	68	288	0
SF_	68	288	0	96	96	4
XHO	69	192	2	96
XHO	69	192	6	96
BRK	70	0	0
BRK	70	0	7
TAP	70	96	3
TAP	70	96	5
TAP	70	144	2
TAP	70	192	0
TAP	70	192	1
TAP	70	288	2
TAP	70	288	4
TAP	70	336	5
TAP	71	0	6
TAP	71	0	7
TAP	71	96	0
TAP	71	96	1
TAP	71	144	2
TAP	71	144	7
TAP	71	192	3
TAP	71	192	6
TAP	71	288	1
TAP	71	288	4
TAP	72	0	3
TAP	72	0	5
TAP	72	96	6
TAP	72	96	7
TAP	72	144	0
TAP	72	144	5
TAP	72	192	1
TAP	72	192	4
TAP	72	288	0
TAP	72	288	1
TAP	72	336	2
TAP	72	336	7
TAP	73	0	3
HLD	73	0	6	96
HLD	73	96	4	96
HLD	73	192	3	96
TAP	73	288	1
TAP	74	0	2
TAP	74	24	3
TAP	74	48	2
TAP	74	96	5
TAP	74	120	4
TAP	74	144	5
TAP	74	192	1
TAP	74	216	3
TAP	74	240	1
TAP	74	288	6
TAP	74	312	4
TAP	74	336	6
TAP	75	0	1
TAP	75	24	0
TAP	75	48	1
TAP	75	96	6
TAP	75	120	7
TAP	75	144	6
TAP	75	192	1
TAP	75	216	2
TAP	75	240	1
TAP	75	288	6
TAP	75	312	5
TAP	75	336	6
TAP	76	0	2
TAP	76	24	3
TAP	76	48	1
TAP	76	96	5
TAP	76	120	4
TAP	76	144	6
TAP	76	192	1
TAP	76	216	0
TAP	76	240	2
TAP	76	288	6
STR	76	288	7
SF_	76	288	7	96	96	3
BRK	77	192	1
BRK	77	192	5
HLD	78	0	2	96
TAP	78	0	4
STR	78	96	3
SUR	78	96	3	96	96	0
XHO	78	192	1	288
TAP	79	0	3
STR	79	96	2
SUR	79	96	2	96	96	7
XHO	79	192	0	192
HLD	80	0	6	96
STR	80	96	7
SUR	80	96	7	96	96	4
XHO	80	192	5	192
HLD	81	0	4	96
HLD	81	96	3	96
TAP	81	192	2
TAP	81	288	1
TAP	81	288	4
TAP	82	0	3
HLD	82	0	5	96
STR	82	96	4
SUL	82	96	4	96	96	7
XHO	82	192	6	288
TAP	83	0	4
STR	83	96	5
SUL	83	96	5	96	96	0
XHO	83	192	7	192
HLD	84	0	1	96
STR	84	96	0
SUL	84	96	0	96	96	3
XHO	84	192	2	192
HLD	85	0	3	96
HLD	85	96	4	96
TAP	85	192	5
XTP	85	288	1
XTP	85	288	6
HLD	86	0	2	96
TAP	86	0	3
STR	86	96	1
SXL	86	96	1	96	96	3
XHO	86	192	0	192
HLD	87	0	1	96
STR	87	96	2
SXL	87	96	2	96	96	4
XHO	87	192	3	192
HLD	88	0	5	96
STR	88	96	6
SXR	88	96	6	96	96	4
XHO	88	192	7	192
HLD	89	0	6	96
TAP	89	96	4
TAP	89	192	3
TAP	89	192	4
BRK	89	288	1
BRK	89	288	6
HLD	90	0	6	96
TAP	90	0	7
STR	90	96	5
SXL	90	96	5	96	96	7
XHO	90	192	4	192
HLD	91	0	5	96
STR	91	96	6
SXL	91	96	6	96	96	0
XHO	91	192	7	192
HLD	92	0	1	96
STR	92	96	2
SXR	92	96	2	96	96	0
XHO	92	192	3	192
HLD	93	0	2	96
HLD	93	96	1	96
TAP	93	192	0
TAP	93	288	0
TAP	93	288	7
XTP	94	0	3
XTP	94	0	4
TAP	94	192	2
TAP	94	216	3
TAP	94	240	2
TAP	94	264	3
TAP	94	288	1
TAP	94	336	6
TAP	94	360	7
TAP	95	0	6
TAP	95	24	7
TAP	95	48	5
TAP	95	96	3
TAP	95	120	4
TAP	95	144	3
TAP	95	168	4
TAP	95	192	2
TAP	95	216	5
TAP	95	240	2
TAP	95	264	5
TAP	95	288	1
TAP	95	312	6
TAP	95	336	1
TTP	96	0	0	B	0	M1
THO	96	0	0	768	C	0	M1
TTP	96	0	7	B	0	M1

T_REC_TAP	276
T_REC_BRK	22
T_REC_XTP	32
T_REC_HLD	48
T_REC_XHO	22
T_REC_STR	46
T_REC_BST	1
T_REC_XST	4
T_REC_TTP	43
T_REC_THO	5
T_REC_SLD	51
T_REC_ALL	550
T_NUM_TAP	401
T_NUM_BRK	23
T_NUM_HLD	75
T_NUM_SLD	51
T_NUM_ALL	550
T_JUDGE_TAP	424
T_JUDGE_HLD	256
T_JUDGE_SLD	51
T_JUDGE_ALL	731
TTM_EACHPAIRS	107
TTM_SCR_TAP	200500
TTM_SCR_BRK	59800
TTM_SCR_HLD	75000
TTM_SCR_SLD	76500
TTM_SCR_ALL	411800
TTM_SCR_S	397250
TTM_SCR_SS	409500
TTM_RAT_ACV	10056

