VERSION	0.00.00	1.03.00
FES_MODE	0
BPM_DEF	165.000	165.000	165.000	165.000
MET_DEF	4	4
RESOLUTION	384
CLK_DEF	384
COMPATIBLE_CODE	MA2

BPM	0	0	165.000
MET	0	0	4	4

XHO	2	0	2	1344
XHO	2	0	4	1344
XST	6	0	3
SCL	6	0	3	96	1056	4
TAP	9	192	3
TAP	9	192	4
HLD	10	0	5	192
TAP	10	192	4
TAP	11	0	5
TAP	11	96	5
TAP	11	192	4
HLD	12	0	2	192
TAP	12	192	3
TAP	13	0	2
TAP	13	96	2
TAP	13	192	2
TAP	13	192	3
TAP	14	0	1
TAP	14	96	1
TAP	14	192	0
TAP	15	0	6
TAP	15	96	6
TAP	15	192	7
HLD	16	0	0	192
HLD	16	192	7	192
TAP	17	0	0
TAP	17	96	0
TAP	17	192	0
TAP	17	192	7
TAP	17	288	1
TAP	17	288	6
BRK	18	0	2
BRK	18	0	5
TTP	19	0	4	E	0	L1
TTP	19	192	3	B	0	L1
TTP	20	0	2	B	0	L1
TTP	21	0	6	E	0	L1
TTP	21	192	6	B	0	L1
TTP	22	0	7	B	0	L1
TTP	23	0	2	E	0	L1
TTP	23	192	2	B	0	L1
TTP	24	0	3	B	0	L1
TTP	24	192	4	E	0	L1
TTP	25	0	4	B	0	L1
TTP	25	192	5	B	0	L1
TTP	26	0	6	E	0	L1
TTP	26	192	1	B	0	L1
TTP	26	192	6	B	0	L1
THO	27	0	0	384	C	0	L1
XST	28	288	0
SI_	28	288	0	96	192	4
TAP	30	0	5
TAP	30	96	5
TAP	30	192	6
STR	30	288	6
SI_	30	288	6	96	192	2
TAP	32	0	1
TAP	32	96	1
XTP	32	192	1
XTP	32	192	7
STR	33	0	0
SI_	33	0	0	96	192	3
SI_	33	0	0	96	192	5
TAP	34	0	4
TAP	34	96	4
TAP	34	192	2
TAP	34	192	4
STR	35	0	3
SI_	35	0	3	96	192	0
SI_	35	0	3	96	192	6
TAP	36	0	7
TAP	36	96	7
TAP	36	192	0
TAP	36	192	7
STR	36	288	0
SCR	36	288	0	96	216	4
TAP	36	288	7
TAP	38	0	5
TAP	38	96	5
TAP	38	192	6
STR	38	288	6
SUL	38	288	6	96	192	2
TAP	40	0	1
TAP	40	96	1
XTP	40	192	0
XTP	40	192	6
STR	41	0	7
SI_	41	0	7	96	192	2
SI_	41	0	7	96	192	4
TAP	42	0	3
TAP	42	96	3
TAP	42	192	2
TAP	42	192	4
HLD	43	0	1	192
HLD	43	192	7	192
TAP	44	0	0
TAP	44	96	0
TAP	44	96	7
XTP	44	192	1
XTP	44	192	6
HLD	45	0	2	384
HLD	46	0	3	384
HLD	47	0	4	384
TAP	48	0	5
TAP	48	192	4
TAP	48	192	5
HLD	49	0	6	384
HLD	50	0	7	384
HLD	51	0	0	384
TAP	52	0	1
XTP	52	192	1
XTP	52	192	7
TAP	53	0	0
TAP	53	96	0
TAP	53	192	1
TAP	53	288	1
TAP	54	0	2
TAP	54	96	3
TAP	54	192	2
TAP	54	192	4
TAP	55	0	4
TAP	55	96	4
TAP	55	192	5
TAP	55	288	5
TAP	56	0	6
TAP	56	96	7
TAP	56	192	0
TAP	56	192	6
TAP	57	0	7
TAP	57	96	6
TAP	57	192	5
TAP	57	288	4
TAP	58	0	3
TAP	58	96	2
TAP	58	192	1
TAP	58	288	0
TAP	59	0	6
TAP	59	0	7
TAP	59	96	6
TAP	59	96	7
TAP	59	192	0
TAP	59	192	1
TAP	59	288	0
TAP	59	288	1
TAP	60	0	0
TAP	60	0	7
TAP	60	96	0
TAP	60	96	7
XTP	60	192	1
XTP	60	192	6
STR	61	0	6
SI_	61	0	6	96	192	3
STR	61	0	7
SI_	61	0	7	96	192	2
XTP	62	0	1
XTP	62	0	4
TAP	62	96	1
TAP	62	96	4
TAP	62	192	1
TAP	62	192	4
STR	63	0	0
SI_	63	0	0	96	192	5
STR	63	0	1
SI_	63	0	1	96	192	4
TAP	64	0	3
TAP	64	0	6
TAP	64	96	3
TAP	64	96	6
TAP	64	192	3
TAP	64	192	6
STR	65	0	4
SI_	65	0	4	96	192	1
STR	65	0	5
SI_	65	0	5	96	192	0
TAP	66	0	2
TAP	66	0	7
TAP	66	96	2
TAP	66	96	7
TAP	66	192	2
TAP	66	192	7
STR	67	0	2
SI_	67	0	2	96	192	7
STR	67	0	3
SI_	67	0	3	96	192	6
TAP	68	0	0
TAP	68	0	5
TAP	68	96	0
TAP	68	96	5
TAP	68	192	0
TAP	68	192	5
TAP	69	0	1
TAP	69	0	7
TAP	69	96	1
TAP	69	96	7
BRK	69	192	0
BRK	69	192	6
TAP	70	0	7
TAP	70	96	6
TAP	70	192	4
TAP	70	192	5
TAP	70	288	4
TAP	70	288	5
TAP	71	0	3
TAP	71	96	2
TAP	71	192	1
TAP	71	192	4
TAP	72	0	0
TAP	72	96	1
TAP	72	192	2
TAP	72	192	3
TAP	72	288	2
TAP	72	288	3
TAP	73	0	4
TAP	73	96	5
TAP	73	192	6
TAP	73	192	7
TAP	74	0	0
TAP	74	96	1
TAP	74	192	2
TAP	74	240	2
TAP	74	288	2
TAP	75	0	3
TAP	75	96	4
TAP	75	192	5
TAP	75	240	5
TAP	75	288	5
TAP	76	0	6
TAP	76	0	7
TAP	76	96	6
TAP	76	96	7
TAP	76	192	0
TAP	76	192	1
TAP	76	288	0
TAP	76	288	1
TAP	77	0	0
TAP	77	0	7
TAP	77	96	1
TAP	77	96	6
BRK	77	192	2
BRK	77	192	5
HLD	78	0	2	96
HLD	78	0	3	96
TAP	78	192	2
TAP	78	192	3
TAP	78	288	3
TAP	78	288	4
HLD	79	0	4	96
HLD	79	0	5	96
TAP	79	192	3
TAP	79	192	6
HLD	80	0	6	96
HLD	80	0	7	96
TAP	80	192	6
TAP	80	192	7
TAP	80	288	0
TAP	80	288	7
HLD	81	0	0	96
HLD	81	0	1	96
TAP	81	192	2
TAP	81	192	7
HLD	82	0	1	96
HLD	82	0	3	96
TAP	82	192	1
TAP	82	192	3
TAP	82	288	2
HLD	83	0	3	96
HLD	83	0	4	96
TAP	83	192	3
TAP	83	192	4
TAP	83	288	5
HLD	84	0	4	96
HLD	84	0	6	96
HLD	84	192	3	96
HLD	84	192	4	96
HLD	85	0	1	96
HLD	85	0	3	96
BRK	85	192	0
BRK	85	192	6
TAP	86	0	7
TAP	86	48	7
TAP	86	96	7
TAP	86	192	0
TAP	86	192	6
TAP	86	288	0
TAP	86	288	6
TAP	87	0	5
TAP	87	48	5
TAP	87	96	5
TAP	87	192	4
TAP	87	192	6
TAP	88	0	3
TAP	88	48	3
TAP	88	96	3
TAP	88	192	2
TAP	88	192	4
TAP	88	288	2
TAP	88	288	4
TAP	89	0	1
TAP	89	48	1
TAP	89	96	1
TAP	89	192	0
TAP	89	192	2
TAP	90	0	1
TAP	90	48	1
TAP	90	96	1
XTP	90	192	2
XTP	90	192	3
TAP	90	288	4
TAP	90	288	5
TAP	91	0	6
TAP	91	48	6
TAP	91	96	6
XTP	91	192	4
XTP	91	192	5
TAP	91	288	2
TAP	91	288	3
TAP	92	0	0
TAP	92	0	1
TAP	92	48	0
TAP	92	48	1
TAP	92	96	0
TAP	92	96	1
TAP	92	192	6
TAP	92	192	7
TAP	92	240	6
TAP	92	240	7
TAP	92	288	6
TAP	92	288	7
TAP	93	0	0
TAP	93	0	7
TAP	93	48	0
TAP	93	48	7
TAP	93	96	0
TAP	93	96	7
BRK	93	192	1
BRK	93	192	6
XTP	94	0	3
XTP	94	0	4
TAP	94	192	1
TAP	94	240	1
TAP	94	288	6
TAP	94	336	6
TAP	95	0	0
TAP	95	48	0
TAP	95	96	7
TAP	95	144	6
TAP	95	192	5
TAP	95	240	4
TAP	95	288	3
TAP	95	336	2
HLD	96	0	1	768
HLD	96	0	6	768

T_REC_TAP	239
T_REC_BRK	10
T_REC_XTP	18
T_REC_HLD	32
T_REC_XHO	2
T_REC_STR	14
T_REC_BST	0
T_REC_XST	2
T_REC_TTP	15
T_REC_THO	1
T_REC_SLD	19
T_REC_ALL	352
T_NUM_TAP	288
T_NUM_BRK	10
T_NUM_HLD	35
T_NUM_SLD	19
T_NUM_ALL	352
T_JUDGE_TAP	298
T_JUDGE_HLD	204
T_JUDGE_SLD	19
T_JUDGE_ALL	521
TTM_EACHPAIRS	97
TTM_SCR_TAP	144000
TTM_SCR_BRK	26000
TTM_SCR_HLD	35000
TTM_SCR_SLD	28500
TTM_SCR_ALL	233500
TTM_SCR_S	225550
TTM_SCR_SS	232500
TTM_RAT_ACV	10043

