VERSION	0.00.00	1.03.00
FES_MODE	0
BPM_DEF	165.000	165.000	165.000	165.000
MET_DEF	4	4
RESOLUTION	384
CLK_DEF	384
COMPATIBLE_CODE	MA2

BPM	0	0	165.000
MET	0	0	4	4

STR	2	0	0
SI_	2	0	0	96	672	3
TAP	5	0	7
STR	6	0	7
SI_	6	0	7	96	672	4
TAP	9	0	0
TAP	10	0	0
TAP	10	192	0
TAP	11	0	1
TAP	11	192	1
TAP	12	0	2
TAP	12	192	2
TAP	13	0	3
TAP	13	192	3
TAP	14	0	4
TAP	14	96	4
TAP	14	192	4
TAP	15	0	5
TAP	15	96	5
TAP	15	192	5
TAP	16	0	6
TAP	16	96	6
TAP	16	192	6
TAP	17	0	0
TAP	17	0	7
TAP	17	192	0
TAP	17	192	7
BRK	18	0	0
BRK	18	0	7
TTP	19	0	1	B	0	L1
TTP	20	0	3	B	0	L1
TTP	21	0	7	B	0	L1
TTP	22	0	5	B	0	L1
TTP	23	0	6	B	0	L1
TTP	24	0	4	B	0	L1
TTP	25	0	0	B	0	L1
TTP	26	0	2	B	0	L1
HLD	27	0	4	192
HLD	28	0	3	192
HLD	29	0	5	192
TAP	30	0	4
TAP	30	96	4
TAP	30	192	4
TAP	30	192	5
HLD	31	0	3	192
HLD	32	0	4	192
HLD	33	0	2	192
TAP	34	0	3
TAP	34	96	3
TAP	34	192	2
TAP	34	192	3
HLD	35	0	1	192
HLD	36	0	7	192
HLD	37	0	0	192
TAP	38	0	6
TAP	38	96	6
TAP	38	192	6
TAP	38	192	7
TAP	39	0	0
TAP	39	192	0
TAP	40	0	7
TAP	40	96	7
BRK	40	192	7
HLD	41	0	6	192
HLD	41	0	7	192
HLD	42	0	4	192
HLD	42	0	5	192
TAP	43	0	3
TAP	43	96	3
TAP	43	192	2
TAP	43	288	2
TAP	44	0	1
TAP	44	96	1
TAP	44	192	0
TAP	44	192	7
TTP	45	0	1	E	0	L1
TTP	46	0	1	B	0	L1
TTP	47	0	2	B	0	L1
TTP	48	0	3	E	0	L1
TTP	49	0	5	E	0	L1
TTP	50	0	5	B	0	L1
TTP	51	0	6	B	0	L1
TTP	52	0	7	E	0	L1
TAP	53	0	7
TAP	53	192	7
TAP	54	0	6
TAP	54	192	6
TAP	55	0	5
TAP	55	192	5
TAP	56	0	4
TAP	56	192	4
TAP	57	0	3
TAP	57	96	3
TAP	57	192	3
TAP	58	0	4
TAP	58	96	4
TAP	58	192	4
THO	59	0	0	384	C	1	L1
HLD	61	0	0	192
HLD	61	0	7	192
STR	62	0	0
SI_	62	0	0	96	288	5
STR	62	0	1
SI_	62	0	1	96	288	4
STR	64	0	6
SI_	64	0	6	96	288	3
STR	64	0	7
SI_	64	0	7	96	288	2
STR	66	0	4
SI_	66	0	4	96	288	1
STR	66	0	5
SI_	66	0	5	96	288	0
STR	68	0	2
SI_	68	0	2	96	288	7
STR	68	0	3
SI_	68	0	3	96	288	6
TAP	70	0	0
TAP	70	96	0
TAP	70	192	1
TAP	71	0	2
TAP	71	96	2
TAP	71	192	3
TAP	72	0	4
TAP	72	96	4
TAP	72	192	5
TAP	73	0	6
TAP	73	96	6
TAP	73	192	6
TAP	73	192	7
TAP	74	0	7
TAP	74	96	7
TAP	74	192	6
TAP	74	288	6
TAP	75	0	5
TAP	75	96	5
TAP	75	192	3
TAP	75	192	4
TAP	76	0	3
TAP	76	96	3
TAP	76	192	2
TAP	76	288	2
TAP	77	0	1
TAP	77	96	1
BRK	77	192	0
BRK	77	192	7
HLD	78	0	0	192
XTP	78	192	7
HLD	79	0	0	192
XTP	79	192	7
HLD	80	0	7	192
XTP	80	192	0
HLD	81	0	7	192
XTP	81	192	0
HLD	82	0	0	192
XTP	82	192	7
HLD	83	0	7	192
XTP	83	192	0
XHO	84	0	0	192
XHO	84	192	7	192
XTP	85	0	0
BRK	85	192	0
BRK	85	192	7
TAP	86	0	0
TAP	86	192	0
TAP	87	0	1
TAP	87	96	1
TAP	87	192	0
TAP	87	192	1
TAP	88	0	2
TAP	88	192	2
TAP	89	0	3
TAP	89	96	3
TAP	89	192	3
TAP	89	192	4
TAP	90	0	4
TAP	90	192	4
TAP	91	0	5
TAP	91	96	5
TAP	91	192	4
TAP	91	192	5
TAP	92	0	6
TAP	92	192	6
TAP	93	0	7
TAP	93	96	7
BRK	93	192	0
BRK	93	192	7
TAP	94	192	0
TAP	94	192	7
TAP	94	288	0
TAP	94	288	7
TAP	95	0	1
TAP	95	0	6
TAP	95	96	1
TAP	95	96	6
TAP	95	192	2
TAP	95	192	5
TAP	95	288	2
TAP	95	288	5
XST	96	0	3
SI_	96	0	3	96	672	0
XST	96	0	4
SI_	96	0	4	96	672	7

T_REC_TAP	122
T_REC_BRK	9
T_REC_XTP	7
T_REC_HLD	21
T_REC_XHO	2
T_REC_STR	10
T_REC_BST	0
T_REC_XST	2
T_REC_TTP	16
T_REC_THO	1
T_REC_SLD	12
T_REC_ALL	202
T_NUM_TAP	157
T_NUM_BRK	9
T_NUM_HLD	24
T_NUM_SLD	12
T_NUM_ALL	202
T_JUDGE_TAP	166
T_JUDGE_HLD	100
T_JUDGE_SLD	12
T_JUDGE_ALL	278
TTM_EACHPAIRS	29
TTM_SCR_TAP	78500
TTM_SCR_BRK	23400
TTM_SCR_HLD	24000
TTM_SCR_SLD	18000
TTM_SCR_ALL	143900
TTM_SCR_S	138750
TTM_SCR_SS	143000
TTM_RAT_ACV	10062

