VERSION	0.00.00	1.03.00
FES_MODE	0
BPM_DEF	180.000	180.000	180.000	180.000
MET_DEF	4	4
RESOLUTION	384
CLK_DEF	384
COMPATIBLE_CODE	MA2

BPM	0	0	180.000
MET	0	0	4	4

HLD	2	0	3	96
BRK	2	0	4
TAP	2	96	4
HLD	2	160	3	96
TAP	2	192	4
TAP	2	288	4
HLD	2	352	3	320
TAP	3	0	4
TAP	3	96	4
TAP	3	192	4
TAP	3	288	4
HLD	4	0	3	96
TAP	4	0	4
TAP	4	96	4
HLD	4	160	3	96
TAP	4	192	4
TAP	4	288	4
HLD	4	352	3	224
TAP	5	0	4
TAP	5	96	5
TAP	5	192	6
XTP	5	288	7
XTP	5	320	7
XTP	5	352	7
XTP	6	0	0
XHO	6	0	7	96
TAP	6	96	0
HLD	6	160	7	96
TAP	6	192	0
TAP	6	288	0
HLD	6	352	7	320
TAP	7	0	0
TAP	7	96	0
TAP	7	192	0
TAP	7	288	0
TAP	8	0	0
HLD	8	0	7	96
TAP	8	96	0
HLD	8	160	7	96
TAP	8	192	0
TAP	8	288	0
HLD	8	352	7	128
TTP	9	0	0	C	1	M1
TAP	9	192	6
TAP	9	224	5
TAP	9	256	4
TAP	9	288	0
TAP	9	320	1
TAP	9	352	2
BRK	10	0	3
HLD	10	0	7	96
TAP	10	96	1
HLD	10	160	7	96
TAP	10	192	2
TAP	10	288	0
HLD	10	352	7	320
TAP	11	0	3
TAP	11	96	1
TAP	11	192	2
TAP	11	288	0
TAP	12	0	3
HLD	12	0	7	96
TAP	12	96	1
HLD	12	160	7	96
TAP	12	192	2
TAP	12	288	0
HLD	12	352	7	212
TAP	13	0	4
HLD	13	96	4	84
XTP	13	192	3
XTP	13	192	6
XTP	13	204	2
XTP	13	204	5
XTP	13	216	1
XTP	13	216	4
XTP	13	228	0
XTP	13	228	3
BRK	13	288	0
BRK	13	288	3
HLD	14	0	0	96
TAP	14	0	4
TAP	14	96	6
HLD	14	160	0	96
TAP	14	192	5
TAP	14	288	7
HLD	14	352	0	320
TAP	15	0	4
TAP	15	96	6
TAP	15	192	5
TAP	15	288	7
TTP	16	0	2	E	0	M1
TTP	16	0	6	E	0	M1
TTP	16	96	3	E	0	M1
TTP	16	96	7	E	0	M1
TTP	16	192	0	E	0	M1
TTP	16	192	4	E	0	M1
TTP	16	288	1	E	0	M1
TTP	16	288	5	E	0	M1
TAP	17	0	7
TAP	17	64	7
TAP	17	96	4
TAP	17	160	4
TAP	17	192	5
TAP	17	224	4
TAP	17	256	5
TAP	17	288	2
TAP	17	320	3
TAP	17	352	2
STR	18	0	6
SI_	18	0	6	96	96	2
STR	18	96	2
SI_	18	96	2	96	96	6
TAP	18	192	7
TAP	18	288	2
STR	19	0	2
SCR	19	0	2	96	96	5
STR	19	96	5
SXL	19	96	5	96	144	2
TAP	19	192	6
TAP	19	288	3
XST	20	0	5
SI_	20	0	5	96	96	1
STR	20	96	1
SI_	20	96	1	96	96	4
STR	20	192	4
SXL	20	192	4	96	192	0
TAP	20	288	1
TAP	21	0	2
TAP	21	96	2
TAP	21	192	2
TAP	21	256	2
TAP	21	288	0
TAP	21	352	0
STR	22	0	1
SI_	22	0	1	96	96	5
STR	22	96	5
SI_	22	96	5	96	96	1
TAP	22	192	0
TAP	22	288	5
STR	23	0	5
SCL	23	0	5	96	96	2
STR	23	96	2
SXR	23	96	2	96	144	5
TAP	23	192	1
TAP	23	288	4
XST	24	0	2
SI_	24	0	2	96	96	6
STR	24	96	6
SI_	24	96	6	96	96	3
STR	24	192	3
SXR	24	192	3	96	192	7
TAP	24	288	6
TAP	25	0	5
TAP	25	96	5
TAP	25	192	5
TAP	25	224	4
TAP	25	256	6
TAP	25	288	2
TAP	25	320	3
TAP	25	352	1
STR	26	0	6
SI_	26	0	6	96	96	3
STR	26	96	3
SI_	26	96	3	96	96	7
STR	26	192	7
SI_	26	192	7	96	96	2
STR	26	288	2
SI_	26	288	2	96	96	6
STR	27	0	6
SXL	27	0	6	96	192	3
TAP	27	96	3
TAP	27	192	2
TAP	27	288	1
STR	28	0	2
SI_	28	0	2	96	96	7
STR	28	96	7
SI_	28	96	7	96	96	3
TAP	28	192	5
TAP	28	288	5
TAP	29	0	2
TAP	29	0	4
HLD	29	96	0	84
HLD	29	96	3	84
XTP	29	192	1
XTP	29	192	4
XTP	29	204	2
XTP	29	204	5
XTP	29	216	3
XTP	29	216	6
XTP	29	228	4
XTP	29	228	7
BRK	29	288	4
BRK	29	288	7
STR	30	0	6
SI_	30	0	6	96	96	3
STR	30	96	3
SI_	30	96	3	96	96	7
STR	30	192	7
SI_	30	192	7	96	96	2
STR	30	288	2
SI_	30	288	2	96	96	6
STR	31	0	6
SXR	31	0	6	96	240	0
TAP	31	96	3
TAP	31	192	2
TAP	31	288	2
TAP	32	0	1
TAP	32	64	1
TAP	32	96	7
TAP	32	160	7
TAP	32	192	3
TAP	32	256	3
TAP	32	288	5
TAP	32	352	5
TAP	33	0	4
TAP	33	0	5
TAP	33	64	2
TAP	33	96	2
TAP	33	96	3
TAP	33	160	5
TAP	33	192	2
TAP	33	224	3
TAP	33	256	2
TAP	33	288	5
TAP	33	320	4
TAP	33	352	5
STR	34	0	3
SCL	34	0	3	96	384	7
TAP	34	192	5
STR	35	0	7
SUR	35	0	7	96	384	4
TAP	35	192	5
STR	36	0	4
SCL	36	0	4	96	384	0
TAP	36	192	5
HLD	37	0	7	96
TAP	37	192	5
TAP	37	256	5
TAP	37	288	0
TAP	37	352	0
STR	38	0	4
SCR	38	0	4	96	384	0
TAP	38	192	2
STR	39	0	0
SUL	39	0	0	96	384	3
TAP	39	192	2
STR	40	0	3
SCR	40	0	3	96	384	7
TAP	40	192	2
HLD	41	0	0	96
TAP	41	192	5
TAP	41	224	4
TAP	41	256	6
TAP	41	288	2
TAP	41	320	3
TAP	41	352	1
STR	42	0	4
SSL	42	0	4	96	384	0
TAP	42	96	2
TAP	42	192	2
TAP	42	288	2
TAP	43	0	2
TAP	43	96	2
TAP	43	192	2
TAP	43	192	3
TAP	43	288	3
TAP	43	288	4
STR	44	0	3
SSR	44	0	3	96	288	7
TAP	44	0	4
TAP	44	96	5
TAP	44	192	5
TAP	44	288	5
TAP	45	0	5
HLD	45	96	3	84
HLD	45	96	4	84
XTP	45	192	2
XTP	45	192	5
XTP	45	204	1
XTP	45	204	6
XHO	45	216	0	60
XHO	45	216	7	60
XTP	45	288	1
XTP	45	288	6
XTP	45	300	2
XTP	45	300	5
XTP	45	312	3
XTP	45	312	4
STR	46	0	3
SUR	46	0	3	96	192	0
TAP	46	96	4
TAP	46	192	5
TAP	46	288	6
STR	47	0	7
SUR	47	0	7	96	192	4
TAP	47	96	3
TAP	47	192	2
TAP	47	288	1
TAP	48	0	2
TAP	48	32	3
TAP	48	64	2
TAP	48	96	4
TAP	48	128	1
TAP	48	160	4
TAP	48	192	0
TAP	48	224	5
TAP	48	256	0
TAP	48	288	6
TAP	48	320	7
TAP	48	352	6
TAP	49	0	0
TAP	49	64	0
TAP	49	96	3
TAP	49	160	3
TAP	49	192	2
TAP	49	224	2
TAP	49	256	2
TAP	49	288	5
TAP	49	320	5
TAP	49	352	5
TTP	50	0	0	B	0	M1
TTP	50	0	7	B	0	M1
TAP	50	32	5
TAP	50	64	4
TAP	50	96	5
TAP	50	192	2
TAP	50	224	3
TAP	50	256	1
TAP	50	288	5
TAP	50	320	4
TAP	50	352	6
TTP	51	0	0	B	0	M1
TTP	51	0	7	B	0	M1
TAP	51	32	5
TAP	51	64	4
TAP	51	96	5
TAP	51	192	2
TAP	51	224	3
TAP	51	256	1
TAP	51	288	5
TAP	51	320	4
TAP	51	352	6
TTP	52	0	0	B	0	M1
TTP	52	0	7	B	0	M1
TAP	52	32	5
TAP	52	64	4
TAP	52	96	5
TAP	52	192	2
TAP	52	224	3
TAP	52	256	1
TAP	52	288	5
TAP	52	320	4
TAP	52	352	6
TTP	53	0	0	B	0	M1
TTP	53	0	7	B	0	M1
TAP	53	32	5
TAP	53	64	4
TAP	53	96	5
TAP	53	192	2
TAP	53	224	3
TAP	53	256	1
TAP	53	288	5
TAP	53	320	4
TAP	53	352	6
BRK	54	0	2
TAP	54	32	4
TAP	54	64	0
BRK	54	96	5
TAP	54	128	3
TAP	54	160	7
BRK	54	192	2
TAP	54	224	4
TAP	54	256	0
BRK	54	288	5
TAP	54	320	3
TAP	54	352	7
BRK	55	0	2
TAP	55	32	4
TTP	55	64	1	B	0	M1
TTP	55	64	1	E	0	M1
BRK	55	96	5
TAP	55	128	3
TTP	55	160	6	B	0	M1
TTP	55	160	7	E	0	M1
BRK	55	192	2
TAP	55	224	4
TTP	55	256	1	B	0	M1
TTP	55	256	1	E	0	M1
BRK	55	288	5
TAP	55	320	3
TTP	55	352	6	B	0	M1
TTP	55	352	7	E	0	M1
HLD	56	0	1	32
HLD	56	0	5	32
HLD	56	64	2	32
HLD	56	64	6	32
HLD	56	128	3	32
HLD	56	128	7	32
HLD	56	192	0	32
HLD	56	192	4	32
HLD	56	256	1	32
HLD	56	256	5	32
HLD	56	320	2	32
HLD	56	320	6	32
TAP	57	0	3
TAP	57	24	2
TAP	57	48	1
TAP	57	72	0
TAP	57	96	7
TAP	57	120	6
TAP	57	144	5
TAP	57	168	4
TAP	57	192	0
TAP	57	204	1
TAP	57	216	2
TAP	57	228	3
TAP	57	240	4
TAP	57	252	5
TAP	57	264	6
TAP	57	276	7
BRK	57	288	0
TTP	57	288	0	C	0	M1
TAP	58	0	2
TAP	58	32	3
TAP	58	64	1
TAP	58	96	6
TAP	58	128	7
TAP	58	160	5
TAP	58	192	1
TAP	58	224	0
TAP	58	256	2
TAP	58	288	5
TAP	58	320	4
TAP	58	352	6
TAP	59	0	2
TAP	59	32	3
TAP	59	64	1
TAP	59	96	5
TAP	59	128	7
TAP	59	160	5
BRK	59	192	7
TAP	59	208	0
TAP	59	224	1
TAP	59	240	2
TAP	59	256	3
TAP	59	272	4
BRK	59	288	0
TAP	59	304	7
TAP	59	320	6
TAP	59	336	5
TAP	59	352	4
TAP	59	368	3
TAP	60	0	1
TAP	60	32	7
TTP	60	64	2	B	0	M1
TTP	60	64	3	E	0	M1
TAP	60	96	6
TAP	60	128	0
TTP	60	160	5	B	0	M1
TTP	60	160	5	E	0	M1
TAP	60	192	1
TAP	60	224	7
TTP	60	256	2	B	0	M1
TTP	60	256	3	E	0	M1
TAP	60	288	6
TAP	60	320	0
TTP	60	352	5	B	0	M1
TTP	60	352	5	E	0	M1
BRK	61	0	0
TAP	61	16	1
TAP	61	32	2
TAP	61	48	3
TAP	61	64	4
BRK	61	96	0
TAP	61	112	7
TAP	61	128	6
TAP	61	144	5
TAP	61	160	4
TAP	61	176	3
HLD	61	192	1	64
HLD	61	192	2	64
BRK	61	288	0
BRK	61	288	4
TAP	62	0	5
TAP	62	32	4
TAP	62	64	6
TAP	62	96	1
TAP	62	128	0
TAP	62	160	2
TAP	62	192	6
TAP	62	224	7
TAP	62	256	5
TAP	62	288	2
TAP	62	320	3
TAP	62	352	1
TAP	63	0	5
TAP	63	32	4
TAP	63	64	5
TAP	63	96	2
TAP	63	128	0
TAP	63	160	2
BRK	63	192	0
TAP	63	208	7
TAP	63	224	6
TAP	63	240	5
TAP	63	256	4
TAP	63	272	3
BRK	63	288	7
TAP	63	304	0
TAP	63	320	1
TAP	63	336	2
TAP	63	352	3
TAP	63	368	4
TAP	64	0	6
TAP	64	32	0
TTP	64	64	4	B	0	M1
TTP	64	64	5	E	0	M1
TAP	64	96	1
TAP	64	128	7
TTP	64	160	3	B	0	M1
TTP	64	160	3	E	0	M1
TAP	64	192	6
TAP	64	224	0
TTP	64	256	4	B	0	M1
TTP	64	256	5	E	0	M1
TAP	64	288	1
TAP	64	320	7
TTP	64	352	3	B	0	M1
TTP	64	352	3	E	0	M1
TAP	65	0	6
TAP	65	32	7
TAP	65	64	5
TAP	65	96	2
TAP	65	128	4
TAP	65	160	3
XTP	65	192	2
XTP	65	192	5
XTP	65	204	1
XTP	65	204	6
XHO	65	216	0	60
XHO	65	216	7	60
XTP	65	288	1
XTP	65	288	6
XTP	65	300	2
XTP	65	300	5
XTP	65	312	3
XTP	65	312	4
TAP	66	0	5
TAP	66	32	4
TAP	66	64	6
TAP	66	96	1
TAP	66	128	0
TAP	66	160	2
TAP	66	192	6
TAP	66	224	7
TAP	66	256	5
TAP	66	288	2
TAP	66	320	3
TAP	66	352	1
TAP	67	0	5
TAP	67	32	4
TAP	67	64	5
TAP	67	96	2
TAP	67	128	0
TAP	67	160	2
BRK	67	192	0
TAP	67	208	7
TAP	67	224	6
TAP	67	240	5
TAP	67	256	4
TAP	67	272	3
BRK	67	288	7
TAP	67	304	0
TAP	67	320	1
TAP	67	336	2
TAP	67	352	3
TAP	67	368	4
TAP	68	0	6
TAP	68	32	0
TTP	68	64	4	B	0	M1
TTP	68	64	5	B	0	M1
TAP	68	96	1
TAP	68	128	7
TTP	68	160	2	B	0	M1
TTP	68	160	3	B	0	M1
TAP	68	192	6
TAP	68	224	0
TTP	68	256	4	B	0	M1
TTP	68	256	5	B	0	M1
TAP	68	288	1
TAP	68	320	7
TTP	68	352	2	B	0	M1
TTP	68	352	3	B	0	M1
BRK	69	0	7
TAP	69	16	6
TAP	69	32	5
TAP	69	48	4
TAP	69	64	3
BRK	69	96	7
TAP	69	112	0
TAP	69	128	1
TAP	69	144	2
TAP	69	160	3
TAP	69	176	4
HLD	69	192	5	64
HLD	69	192	6	64
BRK	69	288	3
BRK	69	288	7
TAP	70	0	5
TAP	70	32	3
TAP	70	64	7
TAP	70	96	2
TAP	70	128	4
TAP	70	160	0
TAP	70	192	5
TAP	70	224	3
TAP	70	256	7
TAP	70	288	2
TAP	70	320	4
TAP	70	352	0
BRK	71	0	5
TAP	71	32	3
TTP	71	64	0	B	0	M1
TTP	71	64	0	E	0	M1
TTP	71	64	7	B	0	M1
TAP	71	96	2
TAP	71	128	4
TTP	71	160	0	B	0	M1
TTP	71	160	0	E	0	M1
TTP	71	160	7	B	0	M1
BRK	71	192	5
TAP	71	224	3
TTP	71	256	0	B	0	M1
TTP	71	256	0	E	0	M1
TTP	71	256	7	B	0	M1
TAP	71	288	2
TAP	71	320	4
TTP	71	352	0	B	0	M1
TTP	71	352	0	E	0	M1
TTP	71	352	7	B	0	M1
BRK	72	0	6
TAP	72	32	4
TAP	72	64	5
BRK	72	96	1
TAP	72	128	3
TAP	72	160	2
BRK	72	192	7
TAP	72	224	5
TAP	72	256	6
BRK	72	288	0
TAP	72	320	2
TAP	72	352	1
BRK	73	0	7
TAP	73	16	6
TAP	73	32	5
BRK	73	48	0
TAP	73	64	1
TAP	73	80	2
BRK	73	96	6
TAP	73	112	5
TAP	73	128	4
BRK	73	144	1
TAP	73	160	2
TAP	73	176	3
BRK	73	192	7
TAP	73	204	6
TAP	73	216	5
TAP	73	228	4
TAP	73	240	3
TAP	73	252	2
TAP	73	264	1
TAP	73	276	0
BRK	73	288	7
TAP	73	300	6
TAP	73	312	5
TAP	73	324	4
TAP	73	336	3
TAP	73	348	2
TAP	73	360	1
TAP	73	372	0
TTP	74	0	0	C	1	M1
BST	74	0	7
SCL	74	0	7	96	672	0

T_REC_TAP	417
T_REC_BRK	41
T_REC_XTP	40
T_REC_HLD	43
T_REC_XHO	5
T_REC_STR	34
T_REC_BST	1
T_REC_XST	2
T_REC_TTP	63
T_REC_THO	0
T_REC_SLD	37
T_REC_ALL	683
T_NUM_TAP	556
T_NUM_BRK	42
T_NUM_HLD	48
T_NUM_SLD	37
T_NUM_ALL	683
T_JUDGE_TAP	598
T_JUDGE_HLD	111
T_JUDGE_SLD	37
T_JUDGE_ALL	746
TTM_EACHPAIRS	47
TTM_SCR_TAP	278000
TTM_SCR_BRK	109200
TTM_SCR_HLD	48000
TTM_SCR_SLD	55500
TTM_SCR_ALL	490700
TTM_SCR_S	471950
TTM_SCR_SS	486500
TTM_RAT_ACV	10086

