VERSION	0.00.00	1.03.00
FES_MODE	0
BPM_DEF	180.000	180.000	180.000	180.000
MET_DEF	4	4
RESOLUTION	384
CLK_DEF	384
COMPATIBLE_CODE	MA2

BPM	0	0	180.000
MET	0	0	4	4

HLD	2	0	2	672
TAP	2	0	3
TAP	2	96	3
TAP	2	192	4
TAP	2	288	4
TAP	3	0	3
TAP	3	96	3
TAP	3	192	4
TAP	3	288	4
TAP	4	0	4
HLD	4	0	5	672
TAP	4	96	4
TAP	4	192	3
TAP	4	288	3
TAP	5	0	4
TAP	5	96	4
TAP	5	192	3
TAP	5	288	3
HLD	6	0	2	672
TAP	6	0	4
TAP	6	96	4
TAP	6	192	3
TAP	6	288	3
TAP	7	0	4
TAP	7	96	4
TAP	7	192	3
TAP	7	288	3
TAP	8	0	3
HLD	8	0	5	288
TAP	8	96	3
TAP	8	192	4
TAP	8	288	4
TAP	9	192	3
TAP	9	224	4
TAP	9	256	3
BRK	9	288	4
TAP	10	0	3
TAP	10	96	3
TAP	10	96	4
TAP	10	192	3
TAP	10	288	2
TAP	10	288	3
TAP	11	0	3
TAP	11	96	3
TAP	11	96	4
TAP	11	192	3
TAP	11	288	2
TAP	11	288	3
TAP	12	0	4
TAP	12	96	3
TAP	12	96	4
TAP	12	192	4
TAP	12	288	4
TAP	12	288	5
TAP	13	0	4
STR	13	96	3
SI_	13	96	3	96	48	0
TAP	13	96	4
STR	13	192	4
SI_	13	192	4	96	48	7
TAP	14	0	3
TAP	14	96	2
TAP	14	96	3
TAP	14	192	3
TAP	14	288	3
TAP	14	288	4
TAP	15	0	4
TAP	15	96	4
TAP	15	96	5
TAP	15	192	4
TAP	15	288	3
TAP	15	288	4
TAP	16	0	3
TAP	16	64	4
TAP	16	96	4
TAP	16	160	2
TAP	16	192	2
TAP	16	256	5
TAP	16	288	5
TAP	16	352	1
TAP	17	0	1
TAP	17	64	6
TAP	17	96	6
TAP	17	160	0
TAP	17	192	0
TAP	17	224	7
TAP	17	256	0
BRK	17	288	7
STR	18	0	1
SI_	18	0	1	96	48	4
TAP	18	64	1
TAP	18	96	0
STR	18	192	6
SI_	18	192	6	96	48	3
TAP	18	256	6
TAP	18	288	7
STR	19	0	1
SI_	19	0	1	96	48	4
TAP	19	64	1
TAP	19	96	0
TAP	19	192	6
TAP	19	288	5
TAP	19	288	7
STR	20	0	5
SI_	20	0	5	96	48	0
TAP	20	64	5
TAP	20	96	4
STR	20	192	2
SI_	20	192	2	96	48	7
TAP	20	256	2
TAP	20	288	3
STR	21	0	5
SI_	21	0	5	96	48	0
TAP	21	64	5
TAP	21	96	4
TAP	21	192	2
TAP	21	288	1
TAP	21	288	3
STR	22	0	1
SI_	22	0	1	96	48	6
TAP	22	64	1
TAP	22	96	4
STR	22	192	5
SI_	22	192	5	96	48	2
TAP	22	256	5
TAP	22	288	0
STR	23	0	1
SI_	23	0	1	96	48	6
TAP	23	64	1
TAP	23	96	4
TAP	23	192	5
TAP	23	288	4
TAP	23	288	6
TAP	24	0	6
TAP	24	64	6
TAP	24	96	5
TAP	24	160	5
TAP	24	192	4
TAP	24	288	3
TAP	24	288	4
TAP	25	0	2
TAP	25	64	2
TAP	25	96	1
TAP	25	160	1
TAP	25	192	0
XTP	25	288	0
XTP	25	288	7
HLD	26	0	6	64
TAP	26	64	4
HLD	26	96	4	64
TAP	26	160	5
HLD	26	192	5	64
TAP	26	256	3
HLD	26	288	3	64
TAP	26	352	4
HLD	27	0	4	64
TAP	27	64	2
HLD	27	96	2	64
TAP	27	160	3
STR	27	192	3
SI_	27	192	3	96	48	7
TAP	27	288	1
HLD	28	0	1	64
TAP	28	64	3
HLD	28	96	3	64
TAP	28	160	2
HLD	28	192	2	64
TAP	28	256	4
HLD	28	288	4	64
TAP	28	352	3
HLD	29	0	3	64
TAP	29	64	5
HLD	29	96	5	64
TAP	29	160	4
STR	29	192	4
SI_	29	192	4	96	48	0
TAP	29	288	6
HLD	30	0	6	64
TAP	30	64	4
HLD	30	96	4	64
TAP	30	160	2
HLD	30	192	2	64
TAP	30	256	0
HLD	30	288	0	64
TAP	30	352	7
HLD	31	0	7	64
TAP	31	64	5
HLD	31	96	5	64
TAP	31	160	3
STR	31	192	3
SI_	31	192	3	96	48	7
TAP	31	288	2
TAP	32	0	3
TAP	32	32	4
TAP	32	64	3
TAP	32	96	4
TAP	32	128	3
TAP	32	160	4
TAP	32	192	2
TAP	32	224	5
TAP	32	256	2
TAP	32	288	5
TAP	32	320	2
TAP	32	352	5
HLD	33	0	3	96
HLD	33	96	4	96
TAP	33	192	3
TAP	33	224	4
TAP	33	256	3
BRK	33	288	4
TTP	34	0	2	B	0	M1
TTP	34	0	3	B	0	M1
TTP	34	192	4	B	0	M1
TTP	34	192	5	B	0	M1
TTP	35	0	2	B	0	M1
TTP	35	0	3	B	0	M1
TTP	35	192	4	B	0	M1
TTP	35	288	5	B	0	M1
TTP	36	0	6	E	0	M1
TTP	36	0	7	E	0	M1
TTP	36	192	3	B	0	M1
TTP	36	288	2	B	0	M1
TTP	37	0	1	E	0	M1
TTP	37	0	2	E	0	M1
TTP	37	192	2	B	0	M1
TTP	37	288	3	B	0	M1
TTP	38	0	4	B	0	M1
TTP	38	0	5	B	0	M1
TTP	38	192	2	B	0	M1
TTP	38	192	3	B	0	M1
TTP	39	0	4	B	0	M1
TTP	39	0	5	B	0	M1
TTP	39	192	3	B	0	M1
TTP	39	288	2	B	0	M1
TTP	40	0	1	E	0	M1
TTP	40	0	2	E	0	M1
TTP	40	192	4	B	0	M1
TTP	40	288	5	B	0	M1
TTP	41	0	6	E	0	M1
TTP	41	0	7	E	0	M1
TAP	41	192	5
TAP	41	224	4
TAP	41	256	5
XHO	41	288	4	1440
TAP	42	0	3
TAP	42	96	3
TAP	42	192	3
TAP	42	288	3
TAP	43	0	5
TAP	43	96	5
TAP	43	192	5
TAP	43	288	5
TAP	44	0	2
TAP	44	96	2
TAP	44	192	2
TAP	44	288	2
TAP	45	0	6
TAP	45	96	6
HLD	45	192	6	96
XTP	45	288	0
TAP	46	0	0
THO	46	0	0	1152	C	1	M1
TAP	46	96	0
TAP	46	192	1
TAP	46	288	1
TAP	47	0	2
TAP	47	96	2
TAP	47	192	3
TAP	47	288	3
TAP	48	0	2
TAP	48	96	2
TAP	48	192	1
TAP	48	288	1
BRK	49	0	0
TAP	49	192	0
TAP	49	224	7
TAP	49	256	0
XTP	49	288	7
HLD	50	0	1	192
HLD	50	0	4	288
TAP	50	288	1
HLD	51	0	3	288
HLD	51	0	6	192
TAP	51	288	6
HLD	52	0	2	96
HLD	52	0	4	64
TAP	52	96	4
HLD	52	192	3	64
HLD	52	192	5	96
TAP	52	288	3
HLD	53	0	2	96
HLD	53	0	3	64
TAP	53	96	3
HLD	53	192	4	64
HLD	53	192	5	96
TAP	53	288	4
XTP	54	0	3
TAP	54	64	4
XTP	54	96	4
TAP	54	160	3
XTP	54	192	3
TAP	54	256	4
XTP	54	288	4
TAP	54	352	3
XTP	55	0	4
TAP	55	64	4
XTP	55	96	3
TAP	55	160	3
XTP	55	192	4
TAP	55	256	4
XTP	55	288	3
TAP	55	352	3
XST	56	0	3
SCL	56	0	3	96	288	4
XST	56	0	4
SCR	56	0	4	96	288	3
TTP	57	192	0	C	1	M1
TTP	57	192	2	B	0	M1
TTP	57	192	2	E	0	M1
TTP	57	192	5	B	0	M1
TTP	57	192	6	E	0	M1
STR	58	0	1
SI_	58	0	1	96	48	4
TAP	58	64	7
TAP	58	96	7
TAP	58	160	6
STR	58	192	6
SI_	58	192	6	96	48	3
TAP	58	256	0
TAP	58	288	0
TAP	58	352	1
STR	59	0	1
SI_	59	0	1	96	48	4
TAP	59	64	7
TAP	59	96	7
TAP	59	160	6
TAP	59	192	0
TAP	59	224	7
TAP	59	256	0
XTP	59	288	7
TAP	60	0	5
TAP	60	64	5
TAP	60	96	4
TAP	60	160	4
TAP	60	192	3
XTP	60	288	2
XTP	60	288	4
TAP	61	0	2
TAP	61	64	2
TAP	61	96	3
TAP	61	160	3
TAP	61	192	4
XTP	61	288	3
XTP	61	288	5
STR	62	0	5
SI_	62	0	5	96	48	0
TAP	62	64	3
TAP	62	96	3
TAP	62	160	2
STR	62	192	2
SI_	62	192	2	96	48	7
TAP	62	256	4
TAP	62	288	4
TAP	62	352	5
STR	63	0	5
SI_	63	0	5	96	48	0
TAP	63	64	3
TAP	63	96	3
TAP	63	160	2
TAP	63	192	4
TAP	63	224	3
TAP	63	256	4
XTP	63	288	3
TAP	64	0	1
TAP	64	64	1
TAP	64	96	0
TAP	64	160	0
TAP	64	192	7
XTP	64	288	0
XTP	64	288	6
TAP	65	0	6
TAP	65	64	6
TAP	65	96	7
TAP	65	160	7
TAP	65	192	0
BRK	65	288	1
BRK	65	288	7
STR	66	0	1
SI_	66	0	1	96	48	6
TAP	66	64	4
TAP	66	96	4
TAP	66	160	5
STR	66	192	5
SI_	66	192	5	96	48	2
TAP	66	256	0
TAP	66	288	0
TAP	66	352	1
STR	67	0	1
SI_	67	0	1	96	48	6
TAP	67	64	4
TAP	67	96	4
TAP	67	160	5
TAP	67	192	3
TAP	67	224	4
TAP	67	256	3
XTP	67	288	4
TAP	68	0	5
TAP	68	64	5
TAP	68	96	4
TAP	68	160	4
TAP	68	192	3
TAP	68	256	3
TAP	68	288	2
TAP	68	352	2
TAP	69	0	1
TAP	69	64	1
TAP	69	96	0
TAP	69	160	0
TAP	69	192	7
XTP	69	288	0
XTP	69	288	6
XTP	70	0	0
XTP	70	0	1
TAP	70	64	6
TAP	70	64	7
XTP	70	96	6
XTP	70	96	7
TAP	70	160	2
TAP	70	160	3
XTP	70	192	2
XTP	70	192	3
TAP	70	256	4
TAP	70	256	5
XTP	70	288	4
XTP	70	288	5
TAP	70	352	1
TAP	70	352	3
XTP	71	0	1
XTP	71	0	3
TAP	71	64	4
TAP	71	64	6
XTP	71	96	4
XTP	71	96	6
TAP	71	160	0
TAP	71	160	2
XTP	71	192	0
XTP	71	192	2
TAP	71	256	5
TAP	71	256	7
BRK	71	288	5
BRK	71	288	7
XTP	72	0	0
TAP	72	32	7
TAP	72	64	1
TAP	72	96	6
TAP	72	128	2
TAP	72	160	5
TAP	72	192	3
TAP	72	224	4
TAP	72	256	2
TAP	72	288	5
TAP	72	320	1
TAP	72	352	6
XHO	73	0	0	192
THO	73	192	0	192	C	1	M1
BRK	74	0	0

T_REC_TAP	293
T_REC_BRK	9
T_REC_XTP	38
T_REC_HLD	37
T_REC_XHO	2
T_REC_STR	23
T_REC_BST	0
T_REC_XST	2
T_REC_TTP	35
T_REC_THO	2
T_REC_SLD	25
T_REC_ALL	466
T_NUM_TAP	391
T_NUM_BRK	9
T_NUM_HLD	41
T_NUM_SLD	25
T_NUM_ALL	466
T_JUDGE_TAP	400
T_JUDGE_HLD	188
T_JUDGE_SLD	25
T_JUDGE_ALL	613
TTM_EACHPAIRS	47
TTM_SCR_TAP	195500
TTM_SCR_BRK	23400
TTM_SCR_HLD	41000
TTM_SCR_SLD	37500
TTM_SCR_ALL	297400
TTM_SCR_S	287650
TTM_SCR_SS	296500
TTM_RAT_ACV	10030

