VERSION	0.00.00	1.03.00
FES_MODE	0
BPM_DEF	180.000	180.000	180.000	180.000
MET_DEF	4	4
RESOLUTION	384
CLK_DEF	384
COMPATIBLE_CODE	MA2

BPM	0	0	180.000
MET	0	0	4	4

XHO	2	0	3	576
TAP	3	0	4
TAP	3	96	4
TAP	3	192	4
HLD	4	0	4	576
TAP	5	0	3
TAP	5	96	3
TAP	5	192	3
HLD	6	0	2	576
TAP	7	0	3
TAP	7	96	3
TAP	7	192	3
HLD	8	0	4	384
HLD	8	0	5	384
XTP	9	192	3
XTP	9	192	6
XHO	10	0	6	576
XTP	10	0	7
TAP	11	0	7
TAP	11	96	7
TAP	11	192	7
TAP	12	0	0
HLD	12	0	1	576
TAP	13	0	0
TAP	13	96	0
BRK	13	192	0
TAP	14	0	0
HLD	14	0	7	576
TAP	15	0	0
TAP	15	96	0
TAP	15	192	0
STR	16	0	0
SI_	16	0	0	96	288	3
STR	16	0	7
SI_	16	0	7	96	288	4
XTP	17	192	2
XTP	17	192	5
TAP	18	0	2
TAP	18	96	2
TAP	18	192	2
TAP	18	192	3
TAP	19	0	1
TAP	19	96	1
TAP	19	192	1
TAP	19	192	3
TAP	20	0	2
TAP	20	96	2
TAP	20	192	2
TAP	20	192	3
TAP	21	0	4
TAP	21	96	3
XTP	21	192	3
XTP	21	192	4
TAP	22	0	5
TAP	22	96	5
TAP	22	192	4
TAP	22	192	5
TAP	23	0	6
TAP	23	96	6
TAP	23	192	4
TAP	23	192	6
TAP	24	0	5
TAP	24	96	5
TAP	24	192	4
TAP	24	192	5
HLD	25	0	3	96
HLD	25	0	4	96
BRK	25	192	2
BRK	25	192	5
TAP	26	0	1
TAP	26	96	1
TAP	26	192	0
TAP	26	192	1
TAP	27	0	2
TAP	27	96	2
TAP	27	192	2
TAP	27	192	3
TAP	28	0	1
TAP	28	96	1
TAP	28	192	0
TAP	28	192	1
TAP	29	0	7
TAP	29	96	0
XTP	29	192	0
XTP	29	192	7
TAP	30	0	6
TAP	30	96	6
TAP	30	192	6
TAP	30	192	7
TAP	31	0	5
TAP	31	96	5
TAP	31	192	4
TAP	31	192	5
TAP	32	0	3
TAP	32	96	3
TAP	32	192	4
TAP	32	288	4
HLD	33	0	3	96
HLD	33	0	4	96
XTP	33	192	2
XTP	33	192	5
XTP	33	288	2
XTP	33	288	5
BST	34	0	1
SLR	34	0	1	96	480	7
BRK	34	0	6
STR	36	0	6
SLL	36	0	6	96	480	0
STR	38	0	1
SUR	38	0	1	96	288	5
TAP	39	192	6
STR	40	0	6
SUL	40	0	6	96	288	2
XTP	41	192	1
XTP	41	192	3
TTP	42	0	3	E	0	L1
TTP	42	192	2	B	0	L1
TTP	43	0	1	B	0	L1
TTP	43	0	2	E	0	L1
TTP	44	0	5	E	0	L1
TTP	44	192	5	B	0	L1
TTP	45	0	6	B	0	L1
TTP	45	0	6	E	0	L1
TTP	46	0	4	E	0	L1
TTP	46	192	0	C	0	L1
TTP	47	0	0	E	0	L1
THO	48	0	0	384	C	0	L1
TTP	48	0	1	B	0	L1
TTP	48	0	6	B	0	L1
XTP	49	192	0
XTP	49	192	7
XHO	50	0	1	192
HLD	50	192	2	192
XHO	51	0	3	192
HLD	51	192	4	192
XHO	52	0	5	192
XHO	52	192	6	192
XTP	53	0	7
XTP	53	192	0
XTP	53	192	5
TTP	54	0	5	B	0	L1
TTP	54	96	6	B	0	L1
TTP	54	192	7	B	0	L1
TTP	54	288	0	B	0	L1
TTP	55	0	1	B	0	L1
TTP	55	96	2	B	0	L1
TTP	55	192	3	B	0	L1
TTP	55	192	4	B	0	L1
THO	56	0	0	576	C	1	L1
TTP	56	0	1	B	0	L1
TTP	56	0	6	B	0	L1
XTP	58	0	0
XTP	58	0	7
XTP	58	96	0
XTP	58	96	7
TAP	58	192	1
TAP	58	288	2
TAP	58	288	3
TAP	59	0	3
TAP	59	0	4
TAP	59	96	3
TAP	59	96	4
TAP	59	192	5
TAP	59	288	6
TAP	59	288	7
TAP	60	0	0
TAP	60	0	5
TAP	60	96	0
TAP	60	96	5
TAP	60	192	1
TAP	60	192	6
TAP	60	288	1
TAP	60	288	6
TAP	61	0	2
TAP	61	0	7
TAP	61	96	2
TAP	61	96	7
BRK	61	192	0
BRK	61	192	1
XTP	62	0	2
XTP	62	0	3
TAP	62	96	1
TAP	62	192	2
TAP	62	192	3
TAP	62	288	1
TAP	63	0	4
TAP	63	0	5
TAP	63	96	6
TAP	63	192	4
TAP	63	192	5
TAP	63	288	6
TAP	64	0	3
TAP	64	0	6
TAP	64	96	3
TAP	64	96	6
TAP	64	192	2
TAP	64	192	5
TAP	64	288	2
TAP	64	288	5
HLD	65	0	1	96
HLD	65	0	4	96
BRK	65	192	0
BRK	65	192	7
BRK	65	288	2
BRK	65	288	5
TAP	66	0	4
TAP	66	0	6
TAP	66	96	5
TAP	66	192	3
TAP	66	192	4
TAP	66	288	2
TAP	67	0	1
TAP	67	0	3
TAP	67	96	0
TAP	67	192	0
TAP	67	192	7
TAP	67	288	1
TAP	67	288	6
TAP	68	0	4
TAP	68	0	5
TAP	68	96	3
TAP	68	96	4
TAP	68	192	2
TAP	68	192	3
TAP	68	288	0
TAP	69	0	1
TAP	69	0	3
TAP	69	96	2
TAP	69	96	4
BRK	69	192	0
BRK	69	192	6
XTP	70	0	3
XTP	70	0	4
TAP	70	96	4
TAP	70	96	6
XTP	70	192	3
XTP	70	192	4
TAP	70	288	1
TAP	70	288	3
XTP	71	0	2
XTP	71	0	5
TAP	71	96	6
TAP	71	96	7
XTP	71	192	2
XTP	71	192	5
TAP	71	288	0
TAP	71	288	1
TAP	72	0	0
TAP	72	0	1
TAP	72	96	2
TAP	72	96	3
TAP	72	192	4
TAP	72	192	5
TAP	72	288	6
TAP	72	288	7
TAP	73	0	4
TAP	73	0	5
TAP	73	96	2
TAP	73	96	3
TAP	73	192	0
TAP	73	192	1
TAP	73	288	0
TAP	73	288	7
BST	74	0	1
SLR	74	0	1	96	624	0
BST	74	0	6
SLL	74	0	6	96	624	7

T_REC_TAP	160
T_REC_BRK	12
T_REC_XTP	34
T_REC_HLD	14
T_REC_XHO	6
T_REC_STR	5
T_REC_BST	3
T_REC_XST	0
T_REC_TTP	23
T_REC_THO	2
T_REC_SLD	8
T_REC_ALL	267
T_NUM_TAP	222
T_NUM_BRK	15
T_NUM_HLD	22
T_NUM_SLD	8
T_NUM_ALL	267
T_JUDGE_TAP	237
T_JUDGE_HLD	144
T_JUDGE_SLD	8
T_JUDGE_ALL	389
TTM_EACHPAIRS	81
TTM_SCR_TAP	111000
TTM_SCR_BRK	39000
TTM_SCR_HLD	22000
TTM_SCR_SLD	12000
TTM_SCR_ALL	184000
TTM_SCR_S	177050
TTM_SCR_SS	182500
TTM_RAT_ACV	10082

