VERSION	0.00.00	1.03.00
FES_MODE	0
BPM_DEF	180.000	180.000	180.000	180.000
MET_DEF	4	4
RESOLUTION	384
CLK_DEF	384
COMPATIBLE_CODE	MA2

BPM	0	0	180.000
MET	0	0	4	4

HLD	6	0	3	384
HLD	8	0	4	384
TAP	10	0	3
TAP	10	192	3
TAP	11	0	3
TAP	12	0	4
TAP	12	192	4
TAP	13	0	4
TAP	14	0	3
TAP	14	192	3
TAP	15	0	4
TAP	15	192	4
TAP	16	0	3
TAP	16	0	4
TAP	16	192	3
TAP	16	192	4
BRK	17	0	3
BRK	17	0	4
TAP	18	0	2
TAP	18	192	2
TAP	19	0	2
TAP	19	96	2
TAP	19	192	2
TAP	20	0	1
TAP	20	192	1
TAP	21	0	1
TAP	21	96	1
XTP	21	192	1
TAP	22	0	0
TAP	22	192	0
TAP	23	0	0
TAP	23	96	0
TAP	23	192	0
TAP	24	0	7
TAP	24	192	7
TAP	25	0	7
TAP	25	96	0
BRK	25	192	7
TAP	26	0	6
TAP	26	192	6
TAP	27	0	6
TAP	27	96	6
TAP	27	192	6
TAP	28	0	5
TAP	28	192	5
TAP	29	0	5
TAP	29	96	5
XTP	29	192	5
TAP	30	0	4
TAP	30	192	4
TAP	31	0	4
TAP	31	96	4
TAP	31	192	4
TAP	32	0	3
TAP	32	192	3
TAP	33	0	3
TAP	33	96	4
BRK	33	192	3
STR	34	0	3
SI_	34	0	3	96	288	0
TAP	36	0	7
TAP	36	192	7
HLD	37	0	0	192
HLD	37	0	6	192
STR	38	0	7
SI_	38	0	7	96	288	4
TAP	40	0	3
TAP	40	192	3
HLD	41	0	2	192
HLD	41	0	4	192
TAP	42	0	4
TAP	42	192	4
TAP	43	0	3
TAP	43	0	5
TAP	44	0	3
TAP	44	192	3
TAP	45	0	2
TAP	45	0	4
TAP	46	0	3
TAP	46	192	3
TAP	47	0	4
TAP	47	192	4
TAP	48	0	5
TAP	48	192	5
TAP	49	0	4
TAP	49	0	6
TTP	50	0	6	B	0	L1
TTP	51	0	5	B	0	L1
TTP	52	0	4	B	0	L1
TTP	53	0	3	B	0	L1
TTP	54	0	2	B	0	L1
TTP	55	0	1	B	0	L1
XHO	56	0	0	576
XHO	56	0	7	576
TAP	58	0	0
TAP	58	96	0
TAP	58	192	0
TAP	59	0	1
TAP	59	96	1
TAP	59	192	1
TAP	60	0	2
TAP	60	96	2
TAP	60	192	2
TAP	61	0	3
TAP	61	96	3
XTP	61	192	3
XTP	61	192	4
TAP	62	0	4
TAP	62	96	4
TAP	62	192	4
TAP	63	0	5
TAP	63	96	5
TAP	63	192	5
TAP	64	0	6
TAP	64	96	6
TAP	64	192	6
TAP	65	0	0
TAP	65	0	7
TAP	65	96	0
TAP	65	96	7
BRK	65	192	0
BRK	65	192	7
TAP	66	0	6
TAP	66	96	6
TAP	66	192	6
TAP	67	0	5
TAP	67	96	5
TAP	67	192	5
TAP	68	0	4
TAP	68	96	4
TAP	68	192	4
TAP	69	0	3
TAP	69	96	3
XTP	69	192	2
XTP	69	192	4
TAP	70	0	2
TAP	70	96	2
TAP	70	192	1
TAP	70	288	1
TAP	71	0	0
TAP	71	96	0
TAP	71	192	7
TAP	71	288	7
TAP	72	0	0
TAP	72	0	7
TAP	72	96	0
TAP	72	96	7
TAP	72	192	0
TAP	72	192	7
THO	73	0	0	384	C	1	L1

T_REC_TAP	119
T_REC_BRK	6
T_REC_XTP	6
T_REC_HLD	6
T_REC_XHO	2
T_REC_STR	2
T_REC_BST	0
T_REC_XST	0
T_REC_TTP	6
T_REC_THO	1
T_REC_SLD	2
T_REC_ALL	150
T_NUM_TAP	133
T_NUM_BRK	6
T_NUM_HLD	9
T_NUM_SLD	2
T_NUM_ALL	150
T_JUDGE_TAP	139
T_JUDGE_HLD	64
T_JUDGE_SLD	2
T_JUDGE_ALL	205
TTM_EACHPAIRS	17
TTM_SCR_TAP	66500
TTM_SCR_BRK	15600
TTM_SCR_HLD	9000
TTM_SCR_SLD	3000
TTM_SCR_ALL	94100
TTM_SCR_S	90700
TTM_SCR_SS	93500
TTM_RAT_ACV	10064

