VERSION	0.00.00	1.03.00
FES_MODE	0
BPM_DEF	230.000	230.000	230.000	230.000
MET_DEF	4	4
RESOLUTION	384
CLK_DEF	288
COMPATIBLE_CODE	MA2

BPM	0	0	230.000
MET	0	0	4	3
MET	91	192	4	5
MET	109	0	4	3

TAP	1	192	2
TAP	1	240	3
TAP	1	288	2
TAP	1	336	3
TAP	2	48	1
TAP	2	48	4
TAP	2	96	2
TAP	2	144	3
TAP	2	192	1
TAP	2	240	4
TAP	2	288	0
TAP	2	336	5
STR	3	0	0
SI_	3	0	0	96	48	4
XTP	3	96	6
STR	3	144	6
SI_	3	144	6	96	48	3
XTP	3	240	0
TAP	3	288	0
TAP	4	0	7
STR	4	96	1
SLR	4	96	1	96	192	5
TAP	4	96	6
TAP	4	192	3
TAP	4	288	6
STR	5	0	6
SLL	5	0	6	96	192	2
TAP	5	96	4
TAP	5	192	1
TAP	5	288	0
TAP	6	0	1
TAP	6	0	6
TAP	6	96	0
TAP	6	144	7
STR	6	192	1
SUR	6	192	1	96	144	6
TAP	6	240	6
TAP	7	96	7
TAP	7	192	4
TAP	7	192	6
TAP	7	288	5
TAP	7	336	3
TAP	8	0	4
TAP	8	48	2
TAP	8	96	1
TAP	8	96	3
TAP	8	192	7
TAP	8	240	0
TAP	8	288	6
TAP	8	336	1
STR	9	0	7
SI_	9	0	7	96	48	3
XTP	9	96	1
STR	9	144	1
SI_	9	144	1	96	48	4
XTP	9	240	7
TAP	9	288	7
TAP	10	0	1
TAP	10	96	0
STR	10	96	6
SLL	10	96	6	96	192	2
TAP	10	192	4
TAP	10	288	1
STR	11	0	1
SLR	11	0	1	96	192	5
TAP	11	96	3
TAP	11	192	6
TAP	11	288	7
TAP	12	0	1
TAP	12	0	6
TAP	12	96	0
TAP	12	144	7
TAP	12	192	1
TAP	12	240	6
TAP	12	288	1
TAP	12	288	7
TAP	13	0	0
TAP	13	0	6
TAP	13	96	3
TAP	13	96	4
STR	13	192	1
SCL	13	192	1	96	336	3
TAP	13	192	5
TAP	15	0	2
STR	15	0	7
SCR	15	0	7	96	336	5
STR	16	192	0
SCL	16	192	0	96	336	2
TAP	16	192	6
BRK	18	0	7
XTP	18	96	2
XTP	18	144	5
XTP	18	192	2
XTP	18	240	5
TAP	18	288	3
TAP	18	312	4
TAP	18	336	3
TAP	18	360	4
TAP	19	0	3
TAP	19	24	4
TAP	19	48	3
TAP	19	72	4
TAP	19	96	3
TAP	19	120	4
TAP	19	144	3
TAP	19	168	4
TTP	19	192	0	C	0	M1
TTP	20	0	5	E	0	M1
TTP	20	48	4	B	0	M1
TTP	20	96	3	B	0	M1
TTP	20	288	0	B	0	M1
TTP	21	0	3	B	0	M1
TTP	21	0	6	B	0	M1
TTP	21	144	1	B	0	M1
TTP	21	144	4	B	0	M1
TTP	21	288	0	C	0	M1
TTP	22	96	0	B	0	M1
TTP	22	144	7	B	0	M1
TTP	22	192	7	E	0	M1
TTP	23	0	0	E	0	M1
TTP	23	96	1	E	0	M1
TTP	23	96	7	E	0	M1
TTP	23	240	2	E	0	M1
TTP	23	240	6	E	0	M1
TTP	23	336	4	E	0	M1
TTP	24	0	3	B	0	M1
TTP	24	0	4	B	0	M1
TAP	24	96	0
TAP	24	192	7
TAP	24	288	1
TAP	24	288	6
TTP	25	96	3	E	0	M1
TTP	25	144	3	B	0	M1
TTP	25	192	4	B	0	M1
TTP	26	0	1	E	0	M1
TTP	26	96	2	E	0	M1
TTP	26	192	3	E	0	M1
TTP	26	288	4	E	0	M1
TTP	27	0	5	E	0	M1
TTP	27	96	6	E	0	M1
TTP	27	192	7	E	0	M1
TTP	27	288	0	E	0	M1
TTP	28	96	1	E	0	M1
TTP	28	96	7	E	0	M1
TTP	28	192	2	E	0	M1
TTP	28	192	6	E	0	M1
TTP	29	0	3	E	0	M1
TTP	29	96	4	E	0	M1
TTP	29	192	5	E	0	M1
TTP	29	288	0	B	0	M1
TTP	29	336	7	B	0	M1
THO	30	0	0	288	C	0	M1
BRK	30	288	7
TAP	31	192	1
TAP	31	192	6
TAP	32	0	1
TAP	32	48	0
HLD	32	96	1	192
TAP	32	288	0
STR	33	0	0
SUR	33	0	0	96	192	5
TAP	33	0	1
TAP	33	144	3
TAP	33	288	7
TAP	34	96	6
TAP	34	144	7
HLD	34	192	6	192
TAP	35	0	7
TAP	35	96	6
STR	35	96	7
SUL	35	96	7	96	192	2
TAP	35	240	4
HLD	36	0	0	144
TAP	36	144	1
TAP	36	288	2
TAP	36	288	7
TAP	37	96	6
TAP	37	144	7
HLD	37	192	6	192
TAP	38	0	1
STR	38	96	0
SUR	38	96	0	96	192	6
TAP	38	96	1
TAP	38	240	3
TAP	39	0	7
TAP	39	144	5
TAP	39	192	4
TAP	39	240	3
TAP	39	288	2
XTP	40	96	0
XTP	40	96	7
HLD	40	192	2	96
HLD	40	288	1	96
HLD	41	0	0	96
HLD	41	96	7	96
HLD	41	192	6	96
HLD	41	288	5	96
BRK	42	0	1
TAP	42	32	2
TAP	42	64	3
TAP	42	96	4
TAP	42	128	5
TAP	42	160	6
TAP	42	192	7
TAP	42	224	0
TAP	42	256	1
BRK	42	288	6
TAP	42	320	5
TAP	42	352	4
TAP	43	0	3
TAP	43	32	2
TAP	43	64	1
TAP	43	96	0
TAP	43	128	7
TAP	43	160	6
BRK	43	192	1
BRK	43	192	5
TAP	43	288	0
TAP	43	336	7
TAP	44	0	0
HLD	44	96	1	192
TAP	44	96	3
TAP	44	192	4
TAP	44	288	5
TAP	45	0	2
HLD	45	0	6	192
TAP	45	96	3
TAP	45	192	4
TAP	45	288	2
TAP	45	288	7
XTP	46	0	1
XTP	46	96	1
TAP	46	192	5
HLD	46	240	5	96
TAP	46	336	4
HLD	47	0	4	96
TAP	47	96	3
HLD	47	144	3	96
TAP	47	240	2
HLD	47	288	2	96
HLD	48	0	5	96
TAP	48	96	4
TAP	48	192	2
TAP	48	192	7
HLD	48	288	2	96
TAP	49	0	3
TAP	49	96	6
TAP	49	96	7
TAP	49	144	0
TAP	49	144	5
TAP	49	192	1
STR	49	192	4
SCL	49	192	4	96	864	5
TTP	50	288	2	E	0	M1
TTP	50	336	2	B	0	M1
TTP	51	0	3	B	0	M1
XTP	52	192	7
STR	52	240	0
SI_	52	240	0	96	48	3
STR	52	336	0
SI_	52	336	0	96	48	5
XTP	53	48	0
XTP	53	144	3
STR	53	192	4
SI_	53	192	4	96	48	2
SI_	53	192	4	96	48	6
XTP	53	288	4
XTP	54	0	0
STR	54	48	7
SI_	54	48	7	96	48	4
STR	54	144	7
SI_	54	144	7	96	48	2
XTP	54	240	7
XTP	54	288	5
XTP	54	312	4
XTP	54	336	3
XTP	54	360	2
XTP	55	0	1
XTP	55	24	0
XTP	55	48	7
XTP	55	72	6
XTP	55	96	5
XTP	55	120	4
XTP	55	144	3
XTP	55	168	2
TTP	55	192	0	C	1	M1
HLD	56	96	2	192
TAP	56	96	4
TAP	56	288	3
HLD	57	0	1	192
TAP	57	0	3
TAP	57	192	2
TAP	57	288	1
TAP	57	288	3
TAP	58	96	2
TAP	58	144	3
HLD	58	192	2	192
TAP	59	0	4
TAP	59	96	3
HLD	59	96	5	192
TAP	59	288	4
TAP	60	0	4
HLD	60	0	6	192
TAP	60	192	5
TAP	60	288	4
TAP	60	288	6
TAP	61	192	2
HLD	61	192	4	192
TAP	61	288	1
TAP	62	0	0
HLD	62	96	3	192
TAP	62	96	5
TAP	62	192	6
TAP	62	288	7
TAP	63	0	2
TAP	63	0	4
TAP	63	96	3
TAP	63	96	5
TAP	63	192	1
TAP	63	192	3
XTP	63	288	2
XTP	63	288	6
TAP	64	96	4
HLD	64	192	3	192
TAP	64	192	5
TAP	64	288	6
TAP	65	0	7
TAP	65	96	2
HLD	65	96	4	192
TAP	65	192	1
TAP	65	288	0
TAP	66	0	1
TAP	66	0	5
TAP	66	96	2
TAP	66	96	6
TAP	66	192	3
TAP	66	192	7
BRK	66	288	1
BRK	66	288	5
STR	67	192	0
SCR	67	192	0	96	48	3
STR	67	192	4
SCR	67	192	4	96	48	7
STR	67	288	4
SI_	67	288	4	96	48	0
XTP	68	0	4
STR	68	96	7
SI_	68	96	7	96	48	2
SI_	68	96	7	96	48	4
BRK	68	192	7
XTP	68	288	1
XTP	68	288	5
STR	69	0	0
SUR	69	0	0	96	96	4
TAP	69	0	7
STR	69	96	4
SUR	69	96	4	96	96	0
STR	69	192	0
SCR	69	192	0	96	96	4
STR	69	288	4
SCR	69	288	4	96	96	0
TAP	70	0	0
BRK	70	96	4
STR	70	192	3
SCL	70	192	3	96	48	0
STR	70	192	7
SCL	70	192	7	96	48	4
STR	70	288	3
SI_	70	288	3	96	48	7
XTP	71	0	3
STR	71	96	0
SI_	71	96	0	96	48	3
SI_	71	96	0	96	48	5
BRK	71	192	0
XTP	71	288	2
XTP	71	288	6
STR	72	0	1
SI_	72	0	1	96	48	4
TAP	72	0	7
TAP	72	96	1
STR	72	96	6
SI_	72	96	6	96	48	3
STR	72	192	0
SCL	72	192	0	96	144	2
TAP	72	192	6
XTP	72	288	0
TAP	73	96	1
TAP	73	96	5
TAP	73	192	3
STR	73	192	7
SCL	73	192	7	96	48	4
STR	73	288	3
SI_	73	288	3	96	48	7
TAP	73	304	2
TAP	73	320	1
TAP	73	336	0
XTP	74	0	3
STR	74	96	0
SI_	74	96	0	96	48	3
SI_	74	96	0	96	48	5
BRK	74	192	0
XTP	74	288	2
XTP	74	288	6
TAP	75	0	0
STR	75	0	7
SUL	75	0	7	96	96	3
STR	75	96	3
SUL	75	96	3	96	96	7
STR	75	192	7
SCL	75	192	7	96	96	3
STR	75	288	3
SCL	75	288	3	96	96	7
TAP	76	0	7
BRK	76	96	3
STR	76	192	0
SCR	76	192	0	96	48	3
TAP	76	192	4
STR	76	288	4
SI_	76	288	4	96	48	0
TAP	76	304	5
TAP	76	320	6
TAP	76	336	7
XTP	77	0	4
TAP	77	96	6
TAP	77	192	1
TAP	77	192	4
TAP	77	288	3
STR	77	288	7
SI_	77	288	7	96	48	5
STR	78	0	7
SI_	78	0	7	96	48	1
STR	78	96	7
SF_	78	96	7	96	48	3
TAP	78	192	7
BRK	78	288	1
BRK	78	288	5
TAP	79	192	5
TAP	79	240	4
TAP	79	288	5
TAP	79	336	4
TAP	80	48	3
TAP	80	48	6
TAP	80	96	5
TAP	80	144	4
TAP	80	192	6
TAP	80	240	3
TAP	80	288	7
TAP	80	336	2
STR	81	0	7
SI_	81	0	7	96	48	3
XTP	81	96	1
STR	81	144	1
SI_	81	144	1	96	48	4
XTP	81	240	7
TAP	81	288	7
TAP	82	0	0
TAP	82	96	1
STR	82	96	7
SCL	82	96	7	96	96	4
STR	82	192	4
SCL	82	192	4	96	64	1
TAP	82	288	1
STR	83	0	0
SCR	83	0	0	96	96	3
STR	83	96	3
SCR	83	96	3	96	96	6
TAP	83	192	6
TAP	83	288	7
TAP	84	0	1
TAP	84	0	6
TAP	84	96	7
TAP	84	144	0
STR	84	192	6
SUL	84	192	6	96	144	1
TAP	84	240	1
TAP	85	96	0
TAP	85	192	1
TAP	85	192	3
TAP	85	288	2
TAP	85	336	4
TAP	86	0	3
TAP	86	48	5
TAP	86	96	4
TAP	86	96	6
TAP	86	192	0
TAP	86	240	7
TAP	86	288	1
TAP	86	336	6
STR	87	0	0
SI_	87	0	0	96	48	4
XTP	87	96	6
STR	87	144	6
SI_	87	144	6	96	48	3
XTP	87	240	0
TAP	87	288	0
TAP	88	0	7
STR	88	96	0
SCR	88	96	0	96	96	3
TAP	88	96	6
STR	88	192	3
SCR	88	192	3	96	64	6
TAP	88	288	6
STR	89	0	7
SCL	89	0	7	96	96	4
STR	89	96	4
SCL	89	96	4	96	96	1
TAP	89	192	1
TAP	89	288	0
TAP	90	0	1
TAP	90	0	6
TAP	90	96	0
TAP	90	144	7
STR	90	192	1
SCL	90	192	1	96	192	2
TAP	90	240	7
TAP	90	288	1
BRK	91	96	7
TAP	91	192	2
TAP	91	240	3
TAP	91	288	2
TAP	91	336	3
TAP	92	0	1
TAP	92	48	1
TAP	92	96	5
TAP	92	144	4
TAP	92	192	6
TAP	92	240	6
TAP	92	288	2
TAP	92	336	3
TAP	93	0	2
TAP	93	48	5
TAP	93	96	4
TAP	93	144	5
TAP	93	192	2
TAP	93	240	3
TAP	93	288	2
TAP	93	336	7
TAP	94	0	1
TAP	94	48	0
TAP	94	96	1
TAP	94	144	6
TAP	94	192	7
TAP	94	240	6
XTP	94	288	1
XTP	94	288	5
XTP	95	0	0
XTP	95	0	7
HLD	95	96	0	192
TAP	95	144	6
TAP	95	168	5
TAP	95	192	4
HLD	95	288	7	96
TAP	95	336	1
TAP	95	360	2
TAP	96	0	3
XTP	96	96	1
XTP	96	96	6
TAP	96	192	2
TAP	96	240	3
TAP	96	288	2
TAP	96	336	3
TAP	97	0	1
TAP	97	48	1
TAP	97	96	5
TAP	97	144	4
TAP	97	192	6
TAP	97	240	6
TAP	97	288	1
TAP	97	336	0
TAP	98	0	1
TAP	98	48	6
TAP	98	96	7
TAP	98	144	6
TAP	98	192	0
TAP	98	192	7
BRK	98	288	1
BRK	98	288	6
TAP	99	0	2
TAP	99	0	3
TAP	99	96	4
TAP	99	96	5
TAP	99	192	1
TAP	99	192	3
TAP	99	288	4
TAP	99	288	6
TAP	100	0	2
TAP	100	0	5
XST	100	96	0
SCR	100	96	0	96	240	7
XST	100	96	7
SCL	100	96	7	96	240	0
HLD	101	192	1	480
STR	101	192	5
SLR	101	192	5	96	528	3
XTP	103	192	1
STR	104	0	2
SLL	104	0	2	96	528	4
HLD	104	0	5	480
XTP	106	0	7
XTP	106	72	6
XTP	106	144	5
BRK	106	192	4
BRK	106	192	6
HLD	107	0	7	96
HLD	107	96	6	96
HLD	107	192	5	96
HLD	107	288	4	96
HLD	108	0	3	96
HLD	108	96	2	96
HLD	108	192	1	96
STR	108	288	0
SCR	108	288	0	96	432	7
THO	109	0	0	1152	C	1	M1
STR	110	192	7
SUL	110	192	7	96	336	0
BRK	112	0	0
TAP	118	0	1
HLD	118	0	5	192
TAP	118	96	0
TTP	118	192	3	B	0	M1
TTP	118	192	4	B	0	M1
TTP	118	192	4	E	0	M1
HLD	118	288	2	192
TAP	118	288	6
TAP	119	0	7
TTP	119	96	3	B	0	M1
TTP	119	96	4	B	0	M1
TTP	119	96	4	E	0	M1
TAP	119	192	0
TAP	119	192	1
TAP	119	288	6
TAP	119	288	7
TAP	120	0	4
TAP	120	0	5
TAP	120	96	3
TAP	120	96	6
XTP	120	288	1
XTP	120	288	4
BRK	121	0	5
TAP	121	48	2
TAP	121	72	3
TAP	121	96	2
BRK	121	144	5
TAP	121	192	2
TAP	121	216	3
TAP	121	240	2
BRK	121	288	6
TAP	121	336	2
TAP	121	360	3
TAP	122	0	2
BRK	122	48	6
TAP	122	96	2
TAP	122	120	3
TAP	122	144	2
BRK	122	192	7
TAP	122	216	6
TAP	122	240	5
TAP	122	264	4
TAP	122	288	3
TAP	122	312	2
TAP	122	336	1
TAP	122	360	0
TAP	123	0	7
TAP	123	24	6
TAP	123	48	5
TAP	123	72	4
BRK	123	96	0
TAP	123	120	1
TAP	123	144	2
TAP	123	168	3
TAP	123	192	4
TAP	123	216	5
TAP	123	240	6
TAP	123	264	7
TAP	123	288	0
TAP	123	312	1
TAP	123	336	2
TAP	123	360	3
THO	124	0	0	288	C	0	M1
STR	125	192	1
SUR	125	192	1	96	96	5
STR	125	288	5
SUR	125	288	5	96	96	1
STR	126	0	1
SCR	126	0	1	96	96	5
STR	126	96	5
SCR	126	96	5	96	96	1
BRK	126	288	5
TAP	127	0	2
STR	127	0	6
SCL	127	0	6	96	48	3
STR	127	96	2
SI_	127	96	2	96	48	6
TAP	127	112	1
TAP	127	128	0
TAP	127	144	7
XTP	127	192	2
STR	127	288	0
SCL	127	288	0	96	48	5
SCR	127	288	0	96	48	3
BRK	128	0	0
XTP	128	96	2
XTP	128	96	6
STR	128	192	1
SI_	128	192	1	96	48	4
TAP	128	192	7
TAP	128	288	1
STR	128	288	6
SI_	128	288	6	96	48	3
STR	129	0	0
SCL	129	0	0	96	144	2
TAP	129	0	6
XTP	129	96	0
TAP	129	288	0
TAP	129	288	4
STR	130	0	1
SCR	130	0	1	96	48	4
TAP	130	0	5
STR	130	96	5
SI_	130	96	5	96	48	1
TAP	130	112	6
TAP	130	128	7
TAP	130	144	0
XTP	130	192	5
TAP	130	288	7
TAP	131	0	1
TAP	131	0	3
TAP	131	96	4
TAP	131	96	6
HLD	131	192	0	96
TAP	131	192	6
TAP	131	208	5
TAP	131	224	4
TAP	131	240	3
TAP	131	256	2
TAP	131	336	1
HLD	131	336	7	96
TAP	131	352	2
TAP	131	368	3
TAP	132	0	4
TAP	132	16	5
HLD	132	96	0	96
TAP	132	96	6
TAP	132	112	5
TAP	132	128	4
TAP	132	144	3
TAP	132	160	2
TAP	132	240	1
TAP	132	240	7
TAP	132	256	2
TAP	132	272	3
TAP	132	288	4
TAP	132	304	5
TAP	132	320	6
TAP	132	336	7
TAP	132	352	0
TAP	132	368	1
BRK	133	0	2
BRK	133	0	6
STR	133	192	1
SLR	133	192	1	96	192	5
TAP	133	192	7
TAP	133	288	1
TAP	133	288	4
TAP	134	0	6
STR	134	96	7
SLL	134	96	7	96	192	3
TAP	134	192	4
TAP	134	192	7
TAP	134	288	2
TAP	135	0	1
TAP	135	96	2
TAP	135	96	4
TAP	135	192	4
TAP	135	192	6
STR	135	288	0
SF_	135	288	0	96	48	4
TAP	135	288	4
BRK	136	0	0
TTP	136	24	0	C	1	M1
HLD	137	192	5	288
TAP	138	0	4
HLD	138	96	3	288
TAP	138	288	5
HLD	139	0	6	288
TAP	139	192	4
HLD	139	288	3	288
TAP	140	96	4
HLD	140	192	5	96
TTP	140	288	4	E	0	M1
TTP	141	0	3	E	0	M1
HLD	141	96	6	96
TTP	141	192	0	C	0	M1
TTP	141	288	1	B	0	M1
HLD	142	0	5	288
TAP	142	192	3
HLD	142	288	2	288
TAP	143	96	3
HLD	143	192	4	288
TAP	144	0	2
HLD	144	96	1	288
TAP	144	288	3
HLD	145	0	4	288
TAP	145	192	3
HLD	145	288	2	192
TAP	146	96	4
TTP	146	192	4	E	0	M1
TTP	146	288	2	E	0	M1
TTP	146	288	6	E	0	M1
TTP	147	0	0	E	0	M1
TTP	147	96	3	B	0	M1
TTP	147	96	4	B	0	M1
TTP	147	96	4	E	0	M1

T_REC_TAP	425
T_REC_BRK	32
T_REC_XTP	64
T_REC_HLD	55
T_REC_XHO	0
T_REC_STR	81
T_REC_BST	0
T_REC_XST	2
T_REC_TTP	63
T_REC_THO	3
T_REC_SLD	88
T_REC_ALL	813
T_NUM_TAP	635
T_NUM_BRK	32
T_NUM_HLD	58
T_NUM_SLD	88
T_NUM_ALL	813
T_JUDGE_TAP	667
T_JUDGE_HLD	235
T_JUDGE_SLD	88
T_JUDGE_ALL	990
TTM_EACHPAIRS	110
TTM_SCR_TAP	317500
TTM_SCR_BRK	83200
TTM_SCR_HLD	58000
TTM_SCR_SLD	132000
TTM_SCR_ALL	590700
TTM_SCR_S	569900
TTM_SCR_SS	587500
TTM_RAT_ACV	10054

