VERSION	0.00.00	1.03.00
FES_MODE	0
BPM_DEF	230.000	230.000	230.000	230.000
MET_DEF	4	4
RESOLUTION	384
CLK_DEF	288
COMPATIBLE_CODE	MA2

BPM	0	0	230.000
MET	0	0	4	3
MET	91	192	4	5
MET	109	0	4	3

HLD	1	192	2	192
TAP	1	336	4
TAP	2	0	4
HLD	2	96	5	192
TAP	2	240	3
STR	2	288	3
SUR	2	288	3	96	192	1
HLD	3	288	2	96
HLD	3	288	5	96
TAP	4	96	3
TAP	4	96	4
HLD	4	192	6	192
TAP	4	336	4
TAP	5	0	4
HLD	5	96	1	192
TAP	5	240	3
STR	5	288	3
SLL	5	288	3	96	192	7
BRK	6	288	1
BRK	6	288	6
HLD	7	192	6	192
TAP	7	336	0
TAP	8	0	0
HLD	8	96	1	192
TAP	8	240	7
STR	8	288	7
SUR	8	288	7	96	192	5
HLD	9	288	1	96
HLD	9	288	6	96
TAP	10	96	0
TAP	10	96	7
HLD	10	192	5	192
TAP	10	336	7
TAP	11	0	7
HLD	11	96	2	192
TAP	11	240	0
STR	11	288	0
SUL	11	288	0	96	192	7
BRK	12	288	1
BRK	12	288	6
BRK	13	192	0
BST	13	192	7
SCL	13	192	7	96	768	0
TTP	14	96	0	E	0	M1
TTP	15	0	5	B	0	M1
TTP	15	288	3	B	0	M1
HLD	16	192	2	288
HLD	16	192	5	288
TAP	17	288	2
TAP	17	288	5
TAP	18	0	3
HLD	18	0	4	384
TAP	18	192	2
TAP	18	288	3
TAP	18	336	3
TAP	19	0	3
TAP	19	96	2
TAP	19	96	5
TAP	19	192	3
TAP	19	192	4
TAP	20	0	5
TAP	20	96	4
TAP	20	288	2
STR	21	0	3
SUL	21	0	3	96	240	4
TAP	22	96	6
TAP	22	192	5
TAP	23	0	1
TAP	23	96	2
TAP	23	240	3
TAP	23	240	4
TAP	23	336	2
TAP	23	336	5
STR	24	0	2
SCL	24	0	2	96	336	5
TAP	24	0	5
TAP	25	192	3
TAP	25	192	4
TAP	26	0	3
TAP	26	0	4
HLD	26	96	3	96
HLD	26	192	5	96
HLD	26	288	4	96
HLD	27	0	6	96
HLD	27	96	1	96
HLD	27	192	3	96
HLD	27	288	2	192
TAP	28	96	3
STR	28	192	3
SI_	28	192	3	96	96	5
STR	29	96	3
SI_	29	96	3	96	96	1
STR	30	0	2
SI_	30	0	2	96	96	0
STR	30	0	5
SI_	30	0	5	96	96	7
BRK	30	288	1
BRK	30	288	6
TAP	31	192	2
TAP	31	240	2
TAP	31	288	4
TAP	32	0	3
TAP	32	0	6
TAP	32	96	5
TAP	32	144	5
TAP	32	192	3
STR	32	288	1
SLL	32	288	1	96	192	3
TAP	32	288	4
BRK	33	288	1
BRK	33	288	5
HLD	34	192	2	96
HLD	34	192	3	96
TAP	35	0	3
TAP	35	0	4
HLD	35	96	4	96
HLD	35	96	5	96
STR	35	288	3
SCR	35	288	3	96	192	0
TAP	35	288	6
STR	36	192	5
SCR	36	192	5	96	192	2
TAP	37	192	1
TAP	37	240	1
TAP	37	288	7
TAP	38	0	0
TAP	38	0	5
TAP	38	96	6
TAP	38	144	6
TAP	38	192	0
STR	38	288	2
SLR	38	288	2	96	192	0
TAP	38	288	7
BRK	39	288	2
BRK	39	288	6
TAP	40	96	0
TAP	40	96	7
TAP	40	192	1
TAP	40	192	6
TAP	40	288	5
TAP	41	0	4
TAP	41	96	3
TAP	41	192	2
STR	41	288	1
SUL	41	288	1	96	96	4
STR	42	192	6
SCL	42	192	6	96	192	1
STR	43	192	3
SI_	43	192	3	96	96	1
TAP	43	288	4
TAP	44	0	4
STR	44	96	5
SI_	44	96	5	96	96	7
TAP	44	192	4
TAP	44	288	4
STR	45	0	0
SLL	45	0	0	96	288	4
SLR	45	0	0	96	288	4
TAP	46	96	3
TAP	46	96	5
STR	46	192	7
SI_	46	192	7	96	96	5
TAP	46	288	0
TAP	47	0	0
STR	47	96	1
SI_	47	96	1	96	96	3
TAP	47	192	0
TAP	47	288	0
STR	48	0	4
SLL	48	0	4	96	288	0
SLR	48	0	4	96	288	0
TAP	49	96	7
TAP	49	144	7
STR	49	192	7
SCR	49	192	7	96	288	4
TAP	50	288	0
TAP	50	336	0
STR	51	0	0
SCL	51	0	0	96	288	3
TAP	52	192	4
TAP	52	192	5
TAP	52	240	4
TAP	52	240	5
TAP	52	336	6
TAP	53	48	1
TAP	53	144	2
TAP	53	144	3
TAP	53	192	2
TAP	53	192	3
TAP	53	288	1
TAP	53	288	6
TAP	54	0	0
TAP	54	0	7
TAP	54	48	0
TAP	54	48	7
TAP	54	144	3
TAP	54	144	4
BRK	54	240	1
BRK	54	240	6
TTP	55	192	1	B	0	M1
TTP	55	192	6	B	0	M1
TTP	56	0	4	B	0	M1
TTP	56	96	5	B	0	M1
TTP	56	288	3	B	0	M1
TTP	57	0	2	B	0	M1
TAP	57	192	3
TAP	57	192	4
TAP	57	288	3
TAP	57	288	4
TTP	58	192	3	B	0	M1
TTP	58	192	4	B	0	M1
TTP	59	0	6	B	0	M1
TTP	59	96	5	B	0	M1
TTP	59	288	1	B	0	M1
TTP	60	0	2	B	0	M1
TAP	60	192	3
TAP	60	192	4
TAP	60	288	3
TAP	60	288	4
TAP	61	192	3
TAP	61	192	4
TAP	61	288	5
TAP	62	0	5
TAP	62	96	3
TAP	62	96	4
TAP	62	192	2
TAP	62	288	2
HLD	63	0	1	96
HLD	63	96	0	96
HLD	63	192	7	96
HLD	63	288	6	192
BRK	64	96	0
TAP	64	192	3
TAP	64	192	6
TAP	64	288	5
TAP	65	0	5
TAP	65	96	1
TAP	65	96	4
TAP	65	192	2
TAP	65	288	2
STR	66	0	3
SI_	66	0	3	96	96	0
STR	66	0	4
SI_	66	0	4	96	96	7
BRK	66	288	1
BRK	66	288	6
TAP	67	192	2
TAP	67	240	2
TAP	67	288	4
TAP	68	0	3
TAP	68	0	6
TAP	68	96	5
TAP	68	144	5
TAP	68	192	3
TAP	68	288	1
TAP	68	288	4
TAP	69	0	0
TAP	69	0	6
TAP	69	96	3
TAP	69	96	5
TAP	69	192	2
TAP	69	192	4
TAP	69	288	0
TAP	69	288	7
TAP	70	96	3
TAP	70	144	3
TAP	70	192	5
TAP	70	288	0
TAP	71	0	6
TAP	71	0	7
TAP	71	96	2
TAP	71	144	2
TAP	71	192	7
TAP	71	288	0
TAP	71	288	1
TAP	72	0	2
TAP	72	0	3
TAP	72	96	4
TAP	72	96	5
TAP	72	192	6
TAP	72	192	7
BRK	72	288	1
BRK	72	288	5
TAP	73	192	5
TAP	73	240	5
TAP	73	288	3
TAP	74	0	1
TAP	74	0	4
TAP	74	96	2
TAP	74	144	2
TAP	74	192	4
TAP	74	288	3
TAP	74	288	6
TAP	75	0	1
TAP	75	0	7
TAP	75	96	2
TAP	75	96	4
TAP	75	192	3
TAP	75	192	5
TAP	75	288	0
TAP	75	288	7
TAP	76	96	4
TAP	76	144	4
TAP	76	192	2
TAP	76	288	7
TAP	77	0	0
TAP	77	0	1
TAP	77	96	5
TAP	77	144	5
TAP	77	192	0
TAP	77	288	6
TAP	77	288	7
TAP	78	0	4
TAP	78	0	5
TAP	78	96	2
TAP	78	96	3
TAP	78	192	0
TAP	78	192	1
BRK	78	288	2
BRK	78	288	6
HLD	79	192	6	192
TAP	79	336	0
TAP	80	0	0
HLD	80	96	1	192
TAP	80	240	7
STR	80	288	7
SUR	80	288	7	96	192	5
HLD	81	288	1	96
HLD	81	288	6	96
TAP	82	96	0
TAP	82	96	7
HLD	82	192	2	192
TAP	82	336	0
TAP	83	0	0
HLD	83	96	5	192
TAP	83	240	7
STR	83	288	7
SLL	83	288	7	96	192	3
BRK	84	288	2
BRK	84	288	5
HLD	85	192	2	192
TAP	85	336	4
TAP	86	0	4
HLD	86	96	5	192
TAP	86	240	3
STR	86	288	3
SUR	86	288	3	96	192	1
HLD	87	288	2	96
HLD	87	288	5	96
TAP	88	96	3
TAP	88	96	4
HLD	88	192	1	192
TAP	88	336	3
TAP	89	0	3
HLD	89	96	6	192
TAP	89	240	4
TAP	89	288	4
TAP	90	0	3
TAP	90	0	5
TAP	90	96	2
TAP	90	96	4
TAP	90	192	3
TAP	90	192	5
BRK	90	288	2
BRK	90	288	6
TTP	91	192	1	E	0	M1
TTP	91	240	6	B	0	M1
TTP	91	288	2	B	0	M1
TTP	91	336	5	E	0	M1
TTP	92	0	0	C	0	M1
TAP	92	96	0
TAP	92	192	0
TTP	92	288	7	E	0	M1
TTP	92	336	1	B	0	M1
TTP	93	0	5	B	0	M1
TTP	93	48	3	E	0	M1
TTP	93	96	0	C	0	M1
TAP	93	192	7
TAP	93	288	7
TTP	94	0	0	B	0	M1
TTP	94	48	6	B	0	M1
TTP	94	96	2	B	0	M1
TTP	94	144	4	B	0	M1
TTP	94	192	0	C	0	M1
TAP	94	288	0
TAP	94	288	7
TAP	95	0	0
TAP	95	0	7
TTP	95	96	7	B	0	M1
TTP	95	144	1	B	0	M1
TTP	95	192	5	B	0	M1
TTP	95	240	3	B	0	M1
TTP	95	288	0	C	0	M1
TAP	96	0	0
TAP	96	0	7
TAP	96	96	0
TAP	96	96	7
TTP	96	192	0	B	0	M1
TTP	96	192	7	B	0	M1
TTP	96	288	1	B	0	M1
TTP	96	288	6	B	0	M1
TTP	97	0	2	E	0	M1
TTP	97	0	6	E	0	M1
TTP	97	96	2	B	0	M1
TTP	97	96	5	B	0	M1
TTP	97	192	3	B	0	M1
TTP	97	192	4	B	0	M1
TTP	97	288	1	E	0	M1
TTP	97	336	6	B	0	M1
TTP	98	0	2	B	0	M1
TTP	98	48	5	E	0	M1
TTP	98	96	0	C	0	M1
TAP	98	192	0
TAP	98	192	7
TAP	98	288	0
TAP	98	288	7
HLD	99	0	1	96
HLD	99	96	2	96
HLD	99	192	3	96
HLD	99	288	4	96
HLD	100	0	5	96
HLD	100	96	6	288
TTP	101	0	0	C	1	M1
TAP	101	192	5
STR	101	288	5
SV_	101	288	5	96	192	4
TAP	102	288	2
TAP	103	0	3
TAP	103	96	4
TAP	103	192	3
TAP	103	192	5
TAP	104	0	2
STR	104	96	2
SV_	104	96	2	96	192	3
TAP	105	96	5
TAP	105	192	6
STR	105	288	7
SSR	105	288	7	96	144	3
HLD	106	192	2	192
TAP	106	288	0
TAP	107	0	0
TAP	107	96	1
TAP	107	96	7
TAP	107	192	0
TAP	107	192	6
HLD	107	288	5	192
TAP	108	0	7
TAP	108	96	7
XTP	108	192	1
XTP	108	192	6
HLD	109	0	4	288
TAP	109	96	3
TAP	109	192	2
HLD	109	288	1	288
TAP	110	0	7
TAP	110	96	6
HLD	110	192	5	288
TAP	110	288	4
TAP	111	0	3
HLD	111	96	2	288
TAP	111	192	0
TAP	111	288	7
BRK	112	0	6
TAP	118	0	0
TAP	118	0	7
TAP	118	96	6
TAP	118	192	6
TAP	118	288	0
TAP	118	288	7
TAP	119	0	1
TAP	119	96	1
HLD	119	192	2	96
HLD	119	288	3	96
HLD	120	0	4	96
HLD	120	96	5	192
BRK	120	288	0
TAP	121	0	2
TAP	121	0	7
TAP	121	96	1
TAP	121	192	1
TAP	121	288	0
TAP	121	288	5
TAP	122	0	6
TAP	122	96	6
STR	122	192	0
SI_	122	192	0	96	96	3
STR	122	192	7
SI_	122	192	7	96	96	4
BRK	123	96	1
BRK	123	96	6
THO	124	0	0	576	C	1	M1
BRK	126	96	0
BRK	126	96	7
TAP	126	288	0
TAP	126	336	0
TAP	127	0	6
TAP	127	96	3
TAP	127	192	4
TAP	127	192	5
TAP	127	288	1
TAP	127	336	1
TAP	128	0	4
TAP	128	96	2
TAP	128	96	3
TAP	128	192	0
TAP	128	192	1
TAP	128	288	6
TAP	128	288	7
TAP	129	0	4
TAP	129	0	5
BRK	129	96	2
BRK	129	96	6
TAP	130	0	6
TAP	130	48	6
TAP	130	96	0
TAP	130	192	2
TAP	130	192	7
TAP	130	288	1
TAP	130	336	1
TAP	131	0	7
TAP	131	96	0
TAP	131	96	5
BRK	131	192	3
BRK	131	192	4
BRK	131	336	0
BRK	131	336	7
BRK	132	96	1
BRK	132	96	3
BRK	132	240	4
BRK	132	240	6
TAP	133	0	1
TAP	133	96	4
TAP	133	192	2
TAP	133	192	3
TAP	133	288	6
TAP	133	336	6
TAP	134	0	3
TAP	134	96	4
TAP	134	96	5
TAP	134	192	6
TAP	134	192	7
TAP	134	288	0
TAP	134	288	1
TAP	135	0	2
TAP	135	0	3
BRK	135	96	1
BRK	135	96	5
HLD	136	0	2	192
TAP	136	192	3
HLD	136	288	5	192
STR	137	96	4
SV_	137	96	4	96	192	3
STR	138	96	5
SI_	138	96	5	96	96	2
HLD	139	0	1	192
TAP	139	192	3
HLD	139	288	5	192
TAP	140	96	4
HLD	140	192	2	192
STR	141	0	3
SXL	141	0	3	96	240	7
HLD	142	0	1	192
TAP	142	192	0
HLD	142	288	6	192
STR	143	96	7
SV_	143	96	7	96	192	0
STR	144	96	6
SI_	144	96	6	96	96	1
HLD	145	0	2	192
TAP	145	192	3
HLD	145	288	5	192
TAP	146	96	4
HLD	146	192	3	288
TAP	147	0	4
TAP	147	96	4

T_REC_TAP	329
T_REC_BRK	42
T_REC_XTP	2
T_REC_HLD	68
T_REC_XHO	0
T_REC_STR	39
T_REC_BST	1
T_REC_XST	0
T_REC_TTP	51
T_REC_THO	1
T_REC_SLD	42
T_REC_ALL	575
T_NUM_TAP	421
T_NUM_BRK	43
T_NUM_HLD	69
T_NUM_SLD	42
T_NUM_ALL	575
T_JUDGE_TAP	464
T_JUDGE_HLD	246
T_JUDGE_SLD	42
T_JUDGE_ALL	752
TTM_EACHPAIRS	119
TTM_SCR_TAP	210500
TTM_SCR_BRK	111800
TTM_SCR_HLD	69000
TTM_SCR_SLD	63000
TTM_SCR_ALL	454300
TTM_SCR_S	436500
TTM_SCR_SS	450000
TTM_RAT_ACV	10095

