VERSION	0.00.00	1.03.00
FES_MODE	0
BPM_DEF	230.000	230.000	230.000	230.000
MET_DEF	4	4
RESOLUTION	384
CLK_DEF	288
COMPATIBLE_CODE	MA2

BPM	0	0	230.000
MET	0	0	4	3
MET	91	192	4	5
MET	109	0	4	3

HLD	1	192	2	288
HLD	1	192	3	288
HLD	3	0	4	288
HLD	3	0	5	288
HLD	4	192	3	288
HLD	4	192	4	288
TAP	6	0	3
TAP	6	0	4
TAP	6	192	2
TAP	6	192	5
TAP	6	288	2
TAP	6	288	5
HLD	7	192	0	288
HLD	7	192	1	288
HLD	9	0	6	288
HLD	9	0	7	288
HLD	10	192	0	288
HLD	10	192	7	288
TAP	12	0	0
TAP	12	0	7
TAP	12	192	1
TAP	12	192	6
XTP	12	288	1
XTP	12	288	6
THO	13	192	0	576	C	0	L1
THO	16	192	0	576	C	0	L1
TTP	19	192	2	E	0	L1
TTP	20	96	3	E	0	L1
TTP	21	0	4	E	0	L1
TTP	21	288	5	E	0	L1
TTP	22	192	6	E	0	L1
TTP	23	96	7	E	0	L1
TTP	24	0	0	E	0	L1
TTP	24	288	1	E	0	L1
TTP	25	192	2	E	0	L1
TTP	26	96	0	C	0	L1
TTP	27	0	6	E	0	L1
TTP	27	288	7	E	0	L1
TTP	28	192	0	C	0	L1
TTP	29	96	3	E	0	L1
TTP	30	0	2	E	0	L1
TTP	30	288	0	C	0	L1
XHO	31	192	6	288
HLD	32	96	4	288
TAP	33	0	5
TAP	33	192	3
TAP	33	288	3
HLD	34	192	1	288
HLD	35	96	3	288
TAP	36	0	2
TAP	36	192	4
TAP	36	288	4
XHO	37	192	5	288
HLD	38	96	7	288
TAP	39	0	6
TAP	39	192	0
TAP	39	288	0
TAP	40	192	0
TAP	40	192	7
TAP	41	0	1
TAP	41	0	6
TAP	41	96	1
TAP	41	96	6
TAP	41	288	2
TAP	41	288	5
XHO	42	0	2	288
XHO	42	0	5	288
STR	43	192	3
SCL	43	192	3	96	480	0
TAP	45	288	7
STR	46	192	6
SCL	46	192	6	96	480	3
TAP	48	288	1
STR	49	192	0
SI_	49	192	0	96	480	4
STR	49	192	7
SI_	49	192	7	96	480	3
XST	52	192	2
SLL	52	192	2	96	480	3
XST	52	192	5
SLR	52	192	5	96	480	4
XTP	54	288	2
XTP	54	288	5
HLD	55	192	1	288
TAP	56	0	3
TAP	56	96	3
HLD	57	0	5	288
TAP	57	192	4
TAP	57	288	4
HLD	58	192	2	288
TAP	59	0	3
TAP	59	96	3
TAP	60	0	3
TAP	60	0	4
TAP	60	192	2
TAP	60	192	5
TAP	60	288	2
TAP	60	288	5
HLD	61	192	6	288
TAP	62	0	7
TAP	62	96	7
HLD	63	0	1	288
TAP	63	192	0
TAP	63	288	0
XTP	64	192	2
XTP	64	192	3
XTP	65	96	4
XTP	65	96	5
XTP	66	0	3
XTP	66	0	4
TAP	66	192	2
TAP	66	192	5
BRK	66	288	2
BRK	66	288	5
TAP	67	192	2
TAP	68	0	1
TAP	68	0	3
TAP	68	96	1
TAP	68	96	3
TAP	68	288	0
TAP	69	0	0
TAP	69	192	1
TAP	69	192	7
TAP	69	288	1
TAP	69	288	7
TAP	70	96	6
TAP	70	192	6
TAP	71	0	3
TAP	71	0	5
TAP	71	96	3
TAP	71	96	5
TAP	71	288	2
TAP	72	0	2
TAP	72	0	3
TAP	72	192	1
TAP	72	192	4
XTP	72	288	1
XTP	72	288	4
TAP	73	192	1
TAP	74	0	0
TAP	74	0	2
TAP	74	96	0
TAP	74	96	2
TAP	74	288	3
TAP	75	0	3
TAP	75	192	2
TAP	75	192	4
TAP	75	288	2
TAP	75	288	4
TAP	76	96	5
XTP	76	192	4
XTP	76	192	5
XTP	77	96	1
XTP	77	96	3
XTP	78	0	0
XTP	78	0	7
TAP	78	192	1
TAP	78	192	6
BRK	78	288	1
BRK	78	288	6
XHO	79	192	2	288
HLD	80	96	3	288
TAP	81	0	4
TAP	81	192	5
TAP	81	288	5
XHO	82	192	6	288
HLD	83	96	5	288
TAP	84	0	4
TAP	84	192	3
TAP	84	288	3
XHO	85	192	2	288
HLD	86	96	1	288
TAP	87	0	0
TAP	87	192	7
TAP	87	288	7
HLD	88	192	7	288
HLD	89	96	0	288
STR	90	0	7
SCL	90	0	7	96	288	4
THO	91	192	0	480	C	0	L1
THO	94	0	0	480	C	0	L1
XTP	96	192	0
XTP	96	192	7
TAP	97	96	6
TAP	97	192	6
XTP	97	288	6
TAP	98	192	4
TAP	98	288	4
XTP	99	0	4
TAP	99	288	2
TAP	100	0	2
XTP	100	96	2
TAP	101	0	0
TAP	101	96	0
STR	101	192	0
SCR	101	192	0	96	672	5
STR	104	0	7
SCL	104	0	7	96	672	2
STR	106	192	0
SSL	106	192	0	96	576	4
HLD	109	0	3	288
HLD	109	0	5	288
HLD	110	192	2	288
HLD	110	192	4	288
TTP	112	0	2	E	0	L1
TTP	112	288	2	B	0	L1
TTP	113	192	3	B	0	L1
TTP	114	96	4	E	0	L1
TTP	115	0	5	E	0	L1
TTP	115	288	5	B	0	L1
THO	116	192	0	288	C	0	L1
TTP	118	0	6	E	0	L1
TTP	118	288	4	B	0	L1
TTP	118	288	5	E	0	L1
TTP	119	192	2	E	0	L1
TTP	120	96	3	E	0	L1
TTP	120	96	3	B	0	L1
TTP	121	0	4	B	0	L1
TTP	121	0	5	B	0	L1
TTP	121	0	6	E	0	L1
TTP	121	288	2	B	0	L1
TTP	121	288	2	E	0	L1
TTP	121	288	3	B	0	L1
THO	122	192	0	288	C	0	L1
HLD	124	0	0	288
HLD	124	0	7	288
TAP	125	192	0
TAP	125	192	7
TAP	126	0	1
TAP	126	0	6
BRK	126	96	1
BRK	126	96	6
TAP	127	0	2
TAP	127	96	2
TAP	127	192	2
TAP	127	288	1
TAP	127	288	3
TAP	128	192	5
TAP	128	288	5
TAP	129	0	5
TAP	129	96	4
TAP	129	96	6
XTP	130	0	1
TAP	130	96	1
TAP	130	192	1
TAP	130	288	0
TAP	130	288	7
TAP	131	192	6
TAP	131	288	6
TAP	132	0	6
BRK	132	96	0
BRK	132	96	5
TAP	133	0	2
TAP	133	96	2
TAP	133	192	2
TAP	133	288	5
TAP	134	0	5
TAP	134	96	5
TAP	134	192	2
TAP	134	192	5
TAP	135	0	0
TAP	135	0	7
BRK	135	96	0
BRK	135	96	7
STR	136	0	0
SXL	136	0	0	96	768	1
STR	139	0	7
SXR	139	0	7	96	768	6
TAP	142	0	1
HLD	142	0	6	864
TAP	142	288	1
HLD	143	192	1	288
TAP	145	0	2
HLD	145	0	5	576
HLD	145	288	2	288
TAP	147	0	3
TAP	147	0	4
TAP	147	96	3
TAP	147	96	4

T_REC_TAP	138
T_REC_BRK	10
T_REC_XTP	24
T_REC_HLD	36
T_REC_XHO	7
T_REC_STR	10
T_REC_BST	0
T_REC_XST	2
T_REC_TTP	34
T_REC_THO	6
T_REC_SLD	12
T_REC_ALL	279
T_NUM_TAP	208
T_NUM_BRK	10
T_NUM_HLD	49
T_NUM_SLD	12
T_NUM_ALL	279
T_JUDGE_TAP	218
T_JUDGE_HLD	332
T_JUDGE_SLD	12
T_JUDGE_ALL	562
TTM_EACHPAIRS	64
TTM_SCR_TAP	104000
TTM_SCR_BRK	26000
TTM_SCR_HLD	49000
TTM_SCR_SLD	18000
TTM_SCR_ALL	197000
TTM_SCR_S	190150
TTM_SCR_SS	196000
TTM_RAT_ACV	10051

