VERSION	0.00.00	1.03.00
FES_MODE	0
BPM_DEF	230.000	230.000	230.000	230.000
MET_DEF	4	4
RESOLUTION	384
CLK_DEF	288
COMPATIBLE_CODE	MA2

BPM	0	0	230.000
MET	0	0	4	3
MET	91	192	4	5
MET	109	0	4	3

TAP	7	192	0
TAP	8	96	0
TAP	9	0	0
TAP	10	192	7
TAP	11	96	7
TAP	12	0	7
STR	13	192	0
SI_	13	192	0	96	480	4
HLD	16	192	7	576
TAP	19	192	0
TAP	20	96	0
TAP	21	0	1
TAP	21	288	1
TAP	22	192	2
TAP	23	96	2
HLD	24	0	3	288
TAP	25	192	4
TAP	26	96	4
TAP	27	0	5
TAP	27	288	5
TAP	28	192	6
TAP	29	96	6
HLD	30	0	7	288
TAP	31	192	6
TAP	32	0	6
TAP	32	96	6
TAP	33	0	5
TAP	33	192	5
TAP	33	288	5
TAP	34	192	4
TAP	35	0	4
TAP	35	96	4
HLD	36	0	3	288
HLD	36	0	4	288
TAP	37	192	2
TAP	38	0	2
TAP	38	96	2
TAP	39	0	1
TAP	39	192	1
TAP	39	288	1
TAP	40	192	0
TAP	41	0	0
TAP	41	96	0
HLD	42	0	0	288
HLD	42	0	7	288
TTP	43	192	1	B	0	L1
TTP	45	0	2	B	0	L1
TTP	46	192	3	B	0	L1
TTP	48	0	4	B	0	L1
TTP	49	192	5	B	0	L1
THO	52	192	0	576	C	1	L1
TAP	55	192	0
TAP	56	0	0
TAP	56	96	0
TAP	57	0	1
TAP	57	192	1
TAP	57	288	1
TAP	58	192	2
TAP	59	0	2
TAP	59	96	2
TAP	60	0	3
TAP	60	0	4
TAP	60	288	3
TAP	60	288	4
TAP	61	192	4
TAP	62	0	4
TAP	62	96	4
TAP	63	0	5
TAP	63	192	5
TAP	63	288	5
TAP	64	192	6
TAP	65	0	6
TAP	65	96	6
TAP	66	0	0
TAP	66	0	7
BRK	66	288	0
BRK	66	288	7
TAP	67	192	7
TAP	68	0	7
TAP	68	96	7
TAP	68	288	6
TAP	69	0	6
TAP	69	192	6
TAP	69	288	6
TAP	70	192	5
TAP	71	0	5
TAP	71	96	5
TAP	71	288	4
TAP	72	0	4
TAP	72	192	4
TAP	72	288	3
TAP	72	288	4
TAP	73	192	3
TAP	74	0	3
TAP	74	96	3
TAP	74	288	2
TAP	75	0	2
TAP	75	192	2
TAP	75	288	2
TAP	76	192	1
TAP	77	0	1
TAP	77	96	1
TAP	77	288	0
TAP	78	0	0
TAP	78	192	0
TAP	78	288	0
TAP	78	288	7
TAP	79	192	0
TAP	80	96	1
TAP	81	0	2
TAP	81	288	2
TAP	81	288	3
TAP	82	192	4
TAP	83	96	5
TAP	84	0	6
TAP	84	288	6
TAP	84	288	7
TAP	85	192	7
TAP	86	96	6
TAP	87	0	5
TAP	87	288	4
TAP	87	288	5
TAP	88	192	3
TAP	89	96	2
TAP	90	0	1
TAP	90	288	0
TAP	90	288	1
STR	91	192	7
SI_	91	192	7	96	384	4
STR	94	0	0
SI_	94	0	0	96	384	3
STR	96	192	4
SI_	96	192	4	96	384	7
STR	99	0	3
SI_	99	0	3	96	384	0
TTP	101	192	0	B	0	L1
TTP	101	192	7	B	0	L1
TTP	104	0	1	B	0	L1
TTP	104	0	6	B	0	L1
TTP	106	192	2	B	0	L1
TTP	106	192	5	B	0	L1
XHO	109	0	3	576
XHO	109	0	4	576
TAP	112	0	3
TAP	113	192	3
TAP	113	192	4
TAP	114	96	3
TAP	114	96	4
TAP	115	0	4
TAP	116	192	3
TAP	116	192	4
TAP	117	96	3
TAP	117	96	4
HLD	118	0	2	288
HLD	118	0	3	288
HLD	119	192	4	288
HLD	119	192	5	288
TAP	121	0	2
TAP	121	0	3
TAP	121	288	4
TAP	121	288	5
TAP	122	192	3
TAP	122	288	3
TAP	123	0	4
BRK	123	96	4
THO	124	0	0	576	C	1	L1
TAP	127	0	7
TAP	127	192	6
TAP	127	288	6
TAP	128	96	5
TAP	128	192	5
TAP	129	0	4
TAP	129	96	3
TAP	129	96	4
TAP	130	0	3
TAP	130	192	2
TAP	130	288	2
TAP	131	96	1
TAP	131	192	1
TAP	132	0	0
TAP	132	96	0
TAP	132	96	7
TAP	133	0	7
TAP	133	192	6
TAP	133	288	6
TAP	134	96	5
TAP	134	192	5
TAP	135	0	4
BRK	135	96	3
BRK	135	96	4
TAP	136	0	3
TAP	136	192	3
TAP	136	288	4
TAP	137	192	4
TAP	138	0	4
TAP	138	96	3
TAP	139	0	3
TAP	139	192	3
TAP	139	288	4
TAP	140	96	4
TAP	140	192	3
TAP	141	96	3
TAP	141	96	4
TAP	142	0	4
TAP	142	192	4
TAP	142	288	3
TAP	143	192	3
TAP	144	0	3
TAP	144	96	4
TAP	145	0	4
TAP	145	192	4
TAP	145	288	3
TAP	146	96	3
TAP	146	192	4
TAP	147	96	3
TAP	147	96	4

T_REC_TAP	175
T_REC_BRK	5
T_REC_XTP	0
T_REC_HLD	11
T_REC_XHO	2
T_REC_STR	5
T_REC_BST	0
T_REC_XST	0
T_REC_TTP	11
T_REC_THO	2
T_REC_SLD	5
T_REC_ALL	216
T_NUM_TAP	191
T_NUM_BRK	5
T_NUM_HLD	15
T_NUM_SLD	5
T_NUM_ALL	216
T_JUDGE_TAP	196
T_JUDGE_HLD	120
T_JUDGE_SLD	5
T_JUDGE_ALL	321
TTM_EACHPAIRS	26
TTM_SCR_TAP	95500
TTM_SCR_BRK	13000
TTM_SCR_HLD	15000
TTM_SCR_SLD	7500
TTM_SCR_ALL	131000
TTM_SCR_S	126600
TTM_SCR_SS	130500
TTM_RAT_ACV	10038

