VERSION	0.00.00	1.03.00
FES_MODE	0
BPM_DEF	100.000	100.000	100.000	100.000
MET_DEF	4	4
RESOLUTION	384
CLK_DEF	384
COMPATIBLE_CODE	MA2

BPM	0	0	100.000
MET	0	0	4	4

TAP	1	0	2
TAP	1	24	3
TAP	1	48	5
TAP	1	72	4
TAP	1	96	1
TAP	1	120	3
TAP	2	0	5
TAP	2	24	4
TAP	2	48	2
TAP	2	72	3
TAP	2	96	6
TAP	2	120	4
TAP	3	0	2
TAP	3	24	3
TAP	3	48	5
TAP	3	72	4
TAP	3	96	1
TAP	3	120	3
TAP	4	0	5
TAP	4	24	4
TAP	4	48	2
TAP	4	72	3
TAP	4	96	6
TAP	4	120	4
TAP	4	192	0
TAP	4	216	0
TAP	4	240	0
TAP	4	264	0
TAP	4	288	0
TAP	4	312	0
TAP	4	336	0
TAP	4	360	0
TAP	5	0	6
TAP	5	24	4
TAP	5	48	5
TAP	5	72	1
TAP	5	96	3
TAP	5	120	2
HLD	5	192	6	48
TAP	5	240	3
HLD	5	264	5	48
TAP	5	312	2
HLD	5	336	4	48
TAP	6	0	1
TAP	6	24	3
TAP	6	48	2
TAP	6	72	6
TAP	6	96	4
TAP	6	120	5
HLD	6	192	1	48
TAP	6	240	4
HLD	6	264	2	48
TAP	6	312	5
HLD	6	336	3	48
TAP	7	0	6
TAP	7	24	4
TAP	7	48	5
TAP	7	72	1
TAP	7	96	3
TAP	7	120	2
HLD	7	192	6	48
TAP	7	240	3
HLD	7	264	5	48
TAP	7	312	2
HLD	7	336	4	48
TAP	8	0	1
TAP	8	24	3
TAP	8	48	2
TAP	8	72	6
TAP	8	96	4
TAP	8	120	5
HLD	8	192	7	24
TAP	8	240	7
TAP	8	264	7
TAP	8	288	7
TAP	8	312	7
TAP	8	336	7
TAP	8	360	7
BRK	9	0	0
BRK	9	0	2
BRK	9	48	5
BRK	9	48	7
TAP	9	96	6
TAP	9	120	4
TAP	9	144	2
TAP	9	144	7
TTP	9	192	7	E	0	M1
TTP	9	198	6	B	0	M1
TTP	9	204	5	B	0	M1
TTP	9	210	5	E	0	M1
TTP	9	240	1	E	0	M1
TTP	9	246	1	B	0	M1
TTP	9	252	2	B	0	M1
TTP	9	258	3	E	0	M1
TAP	9	288	2
TAP	9	288	7
TAP	9	336	1
TAP	9	360	3
TAP	10	0	6
TAP	10	24	4
TAP	10	48	2
TAP	10	48	7
TTP	10	96	7	E	0	M1
TTP	10	102	6	B	0	M1
TTP	10	108	5	B	0	M1
TTP	10	114	5	E	0	M1
TAP	10	144	1
TAP	10	168	3
TAP	10	192	2
TAP	10	192	7
TTP	10	240	1	E	0	M1
TTP	10	246	1	B	0	M1
TTP	10	252	2	B	0	M1
TTP	10	258	3	E	0	M1
TAP	10	288	6
TAP	10	312	4
TAP	10	336	0
TAP	10	336	5
TAP	11	0	0
TAP	11	0	2
TAP	11	48	5
TAP	11	48	7
TAP	11	96	6
TAP	11	120	4
TAP	11	144	2
TAP	11	144	7
TTP	11	192	7	E	0	M1
TTP	11	198	6	B	0	M1
TTP	11	204	5	B	0	M1
TTP	11	210	5	E	0	M1
TTP	11	240	1	E	0	M1
TTP	11	246	1	B	0	M1
TTP	11	252	2	B	0	M1
TTP	11	258	3	E	0	M1
TAP	11	288	2
TAP	11	288	7
TAP	11	336	1
TAP	11	360	3
TAP	12	0	6
TAP	12	24	4
TAP	12	48	2
TAP	12	48	7
TTP	12	96	7	E	0	M1
TTP	12	102	6	B	0	M1
TTP	12	108	5	B	0	M1
TTP	12	114	5	E	0	M1
TAP	12	144	1
TAP	12	168	3
TAP	12	192	2
TAP	12	192	7
TAP	12	240	0
TAP	12	240	5
TTP	12	288	2	B	0	M1
TTP	12	288	3	B	0	M1
TTP	12	288	4	B	0	M1
TTP	12	288	4	E	0	M1
TTP	12	288	5	B	0	M1
TAP	13	0	3
TAP	13	0	5
TAP	13	48	1
TAP	13	96	2
TAP	13	96	4
TAP	13	144	6
TAP	13	168	3
TAP	13	192	3
TAP	13	192	5
TTP	13	240	7	E	0	M1
TTP	13	246	7	B	0	M1
TTP	13	252	0	B	0	M1
TTP	13	258	1	E	0	M1
TAP	13	288	2
TAP	13	288	4
TAP	13	312	4
TAP	13	336	7
TAP	14	0	5
TAP	14	24	3
TAP	14	48	0
TAP	14	72	2
TAP	14	96	4
TTP	14	144	1	E	0	M1
TTP	14	150	0	B	0	M1
TTP	14	156	7	B	0	M1
TTP	14	162	7	E	0	M1
TAP	14	168	4
TAP	14	192	2
TAP	14	216	4
TAP	14	240	7
TAP	14	264	5
TAP	14	288	3
TAP	14	312	3
TAP	14	336	3
TAP	14	360	3
TAP	15	0	6
TAP	15	48	0
TAP	15	48	2
TAP	15	96	5
TAP	15	96	7
TAP	15	144	1
TAP	15	168	3
TAP	15	192	2
TAP	15	192	7
HLD	15	240	0	48
HLD	15	240	5	48
TAP	15	336	6
TAP	15	360	4
TAP	16	0	7
TAP	16	24	7
TAP	16	48	7
TAP	16	72	7
TAP	16	96	0
TAP	16	96	4
TAP	16	144	1
TAP	16	168	3
TAP	16	192	2
TAP	16	192	7
TAP	16	240	0
TAP	16	240	5
TTP	16	288	0	C	0	M1
TTP	16	336	3	E	0	M1
TTP	16	336	5	E	0	M1
TAP	17	0	4
HLD	17	0	5	48
TAP	17	48	7
HLD	17	96	3	48
TAP	17	96	4
TAP	17	144	7
TAP	17	192	3
HLD	17	192	4	48
TAP	17	240	1
TTP	17	246	1	E	0	M1
TTP	17	252	0	B	0	M1
TTP	17	258	7	B	0	M1
HLD	17	288	2	48
TAP	17	288	3
TAP	17	336	0
HLD	18	0	4	48
TAP	18	0	5
TAP	18	48	7
TAP	18	96	3
HLD	18	96	4	48
TAP	18	144	7
HLD	18	192	3	48
TAP	18	192	4
TAP	18	240	6
TTP	18	246	7	E	0	M1
TTP	18	252	7	B	0	M1
TTP	18	258	0	B	0	M1
TAP	18	288	2
HLD	18	288	3	48
TAP	18	336	0
TAP	19	0	4
HLD	19	0	5	48
TAP	19	48	7
HLD	19	96	3	48
TAP	19	96	4
TAP	19	144	7
TAP	19	192	3
HLD	19	192	4	48
TAP	19	240	1
TTP	19	246	1	E	0	M1
TTP	19	252	0	B	0	M1
TTP	19	258	7	B	0	M1
HLD	19	288	2	48
TAP	19	288	3
TAP	19	336	0
TTP	20	0	4	B	0	M1
TTP	20	0	5	B	0	M1
TTP	20	0	6	B	0	M1
TTP	20	0	6	E	0	M1
TTP	20	0	7	B	0	M1
TTP	20	96	0	B	0	M1
TTP	20	96	1	B	0	M1
TTP	20	96	2	B	0	M1
TTP	20	96	2	E	0	M1
TTP	20	96	3	B	0	M1
TTP	20	192	4	B	0	M1
TTP	20	192	5	B	0	M1
TTP	20	192	6	B	0	M1
TTP	20	192	6	E	0	M1
TTP	20	192	7	B	0	M1
TTP	20	288	0	C	0	M1
TAP	21	0	1
HLD	21	0	3	48
TAP	21	48	6
HLD	21	96	2	48
TAP	21	96	4
TAP	21	144	6
TAP	21	192	3
HLD	21	192	5	48
TAP	21	216	1
TTP	21	222	2	E	0	M1
TTP	21	228	2	B	0	M1
TTP	21	234	3	B	0	M1
TAP	21	264	1
HLD	21	288	4	48
TAP	21	288	6
TAP	21	336	1
HLD	22	0	1	48
TAP	22	0	3
TAP	22	48	6
TAP	22	96	2
HLD	22	96	4	48
TAP	22	144	6
HLD	22	192	3	48
TAP	22	192	5
TAP	22	216	1
TTP	22	222	1	E	0	M1
TTP	22	228	0	B	0	M1
TTP	22	234	7	B	0	M1
TAP	22	264	1
TAP	22	288	4
HLD	22	288	6	48
TAP	22	336	1
TAP	23	0	1
TAP	23	24	3
TAP	23	48	3
TAP	23	48	6
TAP	23	72	3
HLD	23	96	2	48
TAP	23	96	4
TAP	23	144	6
TAP	23	192	3
HLD	23	192	5	48
TAP	23	216	1
TTP	23	222	2	E	0	M1
TTP	23	228	2	B	0	M1
TTP	23	234	3	B	0	M1
TAP	23	264	1
HLD	23	288	4	48
TAP	23	288	6
TAP	23	336	1
TTP	24	0	0	B	0	M1
TTP	24	0	0	E	0	M1
TTP	24	0	1	B	0	M1
TTP	24	0	6	B	0	M1
TTP	24	0	7	B	0	M1
TTP	24	96	2	B	0	M1
TTP	24	96	3	B	0	M1
TTP	24	96	4	B	0	M1
TTP	24	96	4	E	0	M1
TTP	24	96	5	B	0	M1
TTP	24	192	0	B	0	M1
TTP	24	192	0	E	0	M1
TTP	24	192	1	B	0	M1
TTP	24	192	6	B	0	M1
TTP	24	192	7	B	0	M1
STR	24	288	2
SUR	24	288	2	96	96	5
HLD	24	336	4	144
TAP	25	144	0
TAP	25	192	3
HLD	25	192	4	48
TAP	25	216	7
TTP	25	222	0	E	0	M1
TTP	25	228	0	B	0	M1
TTP	25	234	1	B	0	M1
TAP	25	264	7
HLD	25	288	4	48
TAP	25	288	5
TAP	25	336	1
HLD	26	0	2	48
TAP	26	0	3
TAP	26	48	6
TAP	26	96	3
HLD	26	96	4	48
TAP	26	144	0
HLD	26	192	3	48
TAP	26	192	4
TAP	26	216	7
TTP	26	222	7	E	0	M1
TTP	26	228	6	B	0	M1
TTP	26	234	5	B	0	M1
TAP	26	264	7
TAP	26	288	0
TAP	26	304	6
TAP	26	320	1
TAP	26	336	5
TAP	26	352	2
TAP	26	368	4
TAP	27	0	3
TAP	27	16	5
TAP	27	32	2
TAP	27	48	6
TAP	27	64	1
TAP	27	80	7
HLD	27	96	3	48
TAP	27	144	0
TAP	27	192	3
HLD	27	192	4	48
TAP	27	216	7
TTP	27	222	0	E	0	M1
TTP	27	228	0	B	0	M1
TTP	27	234	1	B	0	M1
TAP	27	264	7
HLD	27	288	4	48
TAP	27	288	5
TAP	27	336	1
TTP	28	0	0	B	0	M1
TTP	28	0	1	B	0	M1
TTP	28	0	2	B	0	M1
TTP	28	0	2	E	0	M1
TTP	28	0	3	B	0	M1
TTP	28	96	4	B	0	M1
TTP	28	96	5	B	0	M1
TTP	28	96	6	B	0	M1
TTP	28	96	6	E	0	M1
TTP	28	96	7	B	0	M1
TTP	28	192	0	B	0	M1
TTP	28	192	1	B	0	M1
TTP	28	192	2	B	0	M1
TTP	28	192	2	E	0	M1
TTP	28	192	3	B	0	M1
TAP	28	288	4
TAP	28	312	3
HLD	28	336	5	48
TAP	29	0	4
TAP	29	24	5
HLD	29	48	2	48
TAP	29	96	3
TAP	29	120	2
HLD	29	144	6	48
TAP	29	192	5
TAP	29	216	6
HLD	29	240	1	48
TAP	29	288	2
TAP	29	312	1
HLD	29	336	7	48
TAP	30	0	6
TAP	30	24	7
HLD	30	48	0	48
TAP	30	96	1
TAP	30	120	0
HLD	30	144	7	48
TAP	30	192	5
TAP	30	216	6
HLD	30	240	0	48
TAP	30	288	2
TAP	30	312	1
HLD	30	336	7	48
TAP	31	0	4
TAP	31	24	5
TAP	31	48	0
TAP	31	48	3
TAP	31	72	2
TAP	31	96	4
TAP	31	96	7
TAP	31	120	6
TAP	31	144	0
TAP	31	144	3
TAP	31	168	1
TAP	31	192	4
TAP	31	192	6
TAP	31	216	5
TAP	31	240	1
TAP	31	240	3
TAP	31	264	2
TAP	31	288	5
TAP	31	288	7
TAP	31	312	6
TAP	31	336	0
TAP	31	336	2
TAP	31	360	1
BRK	32	0	3
BRK	32	0	7
TAP	32	48	5
BRK	32	96	0
BRK	32	96	4
TAP	32	144	2
TAP	32	168	5
TAP	32	192	0
TAP	32	216	7
TAP	32	240	1
TAP	32	240	6
TTP	32	288	2	B	0	M1
TTP	32	288	3	B	0	M1
TTP	32	288	4	B	0	M1
TTP	32	288	4	E	0	M1
TTP	32	288	5	B	0	M1
TAP	33	0	7
TAP	33	48	7
TAP	33	96	0
XTP	33	96	7
TTP	33	100	7	B	0	M1
TAP	34	0	0
TAP	34	48	0
XTP	34	96	0
TAP	34	96	7
TTP	34	100	0	B	0	M1
HLD	35	0	3	96
TAP	35	0	6
TAP	35	48	6
XTP	35	96	6
TTP	35	100	6	B	0	M1
TAP	36	0	1
HLD	36	0	4	96
TAP	36	48	1
XTP	36	96	1
TTP	36	100	1	B	0	M1
TAP	36	192	7
TAP	36	216	7
TAP	36	240	7
TAP	36	264	7
TAP	36	288	7
TAP	36	312	7
TAP	36	336	7
TAP	36	360	7
XTP	37	0	1
TAP	37	0	7
TTP	37	4	1	B	0	M1
TAP	37	48	0
TAP	37	72	0
TAP	37	96	0
XTP	37	96	6
TTP	37	100	6	B	0	M1
TAP	37	144	5
TAP	37	168	5
XTP	37	192	1
TAP	37	192	5
TTP	37	196	1	B	0	M1
TAP	37	240	2
TAP	37	264	2
TAP	37	288	2
XTP	37	288	6
TTP	37	292	6	B	0	M1
TAP	37	336	5
TAP	37	360	5
XTP	38	0	3
TAP	38	0	5
TTP	38	4	3	B	0	M1
TAP	38	48	1
TAP	38	72	1
TAP	38	96	1
XTP	38	96	4
TTP	38	100	4	B	0	M1
TAP	38	144	6
TAP	38	168	6
XTP	38	192	3
TAP	38	192	6
TTP	38	196	3	B	0	M1
TAP	38	240	0
TAP	38	264	0
TAP	38	288	0
XTP	38	288	5
TTP	38	292	5	B	0	M1
TAP	38	336	7
TAP	38	360	7
TAP	39	0	0
TAP	39	24	0
TAP	39	48	1
TAP	39	72	1
TAP	39	96	2
TAP	39	120	2
TAP	39	144	3
TAP	39	168	3
TAP	39	192	4
TAP	39	216	4
TAP	39	240	5
TAP	39	264	5
TAP	39	288	6
TAP	39	312	6
TAP	39	336	7
TAP	39	360	7
TAP	40	0	0
TAP	40	24	0
TAP	40	48	7
TAP	40	60	1
TAP	40	72	7
TAP	40	84	1
TAP	40	96	6
TAP	40	108	2
TAP	40	120	6
TAP	40	132	2
TAP	40	144	5
TAP	40	156	3
TAP	40	168	5
TAP	40	180	3
TAP	40	192	4
TAP	40	216	4
TAP	40	240	3
TAP	40	252	5
TAP	40	264	3
TAP	40	276	5
TAP	40	288	2
TAP	40	300	6
TAP	40	312	2
TAP	40	324	6
TAP	40	336	1
TAP	40	348	7
TAP	40	360	1
TAP	40	372	7
HLD	41	0	0	336
TAP	41	48	7
TTP	41	54	7	B	0	M1
TAP	41	120	2
TTP	41	126	2	B	0	M1
TAP	41	192	6
TTP	41	196	6	B	0	M1
TAP	41	264	3
TTP	41	268	3	B	0	M1
HLD	42	0	7	264
TAP	42	48	0
TTP	42	54	0	B	0	M1
TAP	42	120	5
TTP	42	126	5	B	0	M1
TAP	42	192	1
TTP	42	196	1	B	0	M1
TAP	42	264	4
TTP	42	268	4	B	0	M1
TAP	42	288	6
TAP	42	304	2
TAP	42	320	4
TAP	42	336	3
TAP	42	352	5
TAP	42	368	1
HLD	43	0	4	336
TAP	43	48	2
TTP	43	54	2	B	0	M1
TAP	43	120	5
TTP	43	126	5	B	0	M1
TAP	43	192	1
TTP	43	196	1	B	0	M1
TAP	43	264	6
TTP	43	268	6	B	0	M1
XTP	44	0	2
XTP	44	0	7
TTP	44	4	2	B	0	M1
TTP	44	4	7	B	0	M1
XTP	44	96	0
XTP	44	96	5
TTP	44	100	0	B	0	M1
TTP	44	100	5	B	0	M1
XTP	44	192	2
XTP	44	192	7
TTP	44	196	2	B	0	M1
TTP	44	196	7	B	0	M1
TAP	44	288	0
TAP	44	312	5
TAP	44	336	2
HLD	45	0	7	144
TAP	45	48	5
TTP	45	52	5	B	0	M1
TAP	45	120	1
TTP	45	124	1	B	0	M1
TAP	45	192	0
TAP	45	192	4
TTP	45	196	0	B	0	M1
TTP	45	196	4	B	0	M1
TAP	45	264	2
TAP	45	264	6
TTP	45	268	2	B	0	M1
TTP	45	268	6	B	0	M1
HLD	46	0	0	144
TAP	46	48	2
TTP	46	52	2	B	0	M1
TAP	46	120	6
TTP	46	124	6	B	0	M1
TAP	46	192	3
TAP	46	192	7
TTP	46	196	3	B	0	M1
TTP	46	196	7	B	0	M1
TAP	46	264	1
TAP	46	264	5
TTP	46	268	1	B	0	M1
TTP	46	268	5	B	0	M1
TAP	46	304	6
TAP	46	320	2
TAP	46	336	4
TAP	46	352	1
TAP	46	368	5
HLD	47	0	3	144
TAP	47	48	5
TTP	47	52	5	B	0	M1
TAP	47	120	2
TTP	47	124	2	B	0	M1
TAP	47	192	1
TAP	47	192	5
TTP	47	196	1	B	0	M1
TTP	47	196	5	B	0	M1
TAP	47	264	2
TAP	47	264	6
TTP	47	268	2	B	0	M1
TTP	47	268	6	B	0	M1
XTP	48	0	0
XTP	48	0	3
TTP	48	4	0	B	0	M1
TTP	48	4	3	B	0	M1
XTP	48	96	4
XTP	48	96	7
TTP	48	100	4	B	0	M1
TTP	48	100	7	B	0	M1
XTP	48	192	0
XTP	48	192	3
TTP	48	196	0	B	0	M1
TTP	48	196	3	B	0	M1
TAP	48	288	7
TAP	48	312	4
TAP	48	336	2
THO	49	0	0	96	C	0	M1
TAP	49	192	5
TTP	49	196	5	E	0	M1
TTP	49	200	4	B	0	M1
TAP	49	224	1
TTP	49	228	1	E	0	M1
TTP	49	232	0	B	0	M1
TAP	49	256	6
TTP	49	260	6	E	0	M1
TAP	49	288	2
TTP	49	292	3	E	0	M1
TTP	49	296	3	B	0	M1
TAP	49	320	6
TTP	49	324	7	E	0	M1
TTP	49	328	7	B	0	M1
TAP	49	352	1
TTP	49	356	2	E	0	M1
TAP	50	0	5
TTP	50	4	5	E	0	M1
TTP	50	8	4	B	0	M1
TAP	50	32	1
TTP	50	36	1	E	0	M1
TTP	50	40	0	B	0	M1
TAP	50	64	6
TTP	50	68	6	E	0	M1
TAP	50	96	2
TTP	50	100	3	E	0	M1
TTP	50	104	3	B	0	M1
TAP	50	128	6
TTP	50	132	7	E	0	M1
TTP	50	136	7	B	0	M1
TAP	50	160	1
TTP	50	164	2	E	0	M1
TAP	50	192	5
TTP	50	196	5	E	0	M1
TTP	50	200	4	B	0	M1
TAP	50	224	1
TTP	50	228	1	E	0	M1
TTP	50	232	0	B	0	M1
TAP	50	256	6
TTP	50	260	6	E	0	M1
TAP	50	288	2
TTP	50	292	3	E	0	M1
TTP	50	296	3	B	0	M1
TAP	50	320	6
TTP	50	324	7	E	0	M1
TTP	50	328	7	B	0	M1
TAP	50	352	1
TTP	50	356	2	E	0	M1
THO	51	0	0	96	C	0	M1
TAP	51	192	6
TTP	51	196	6	E	0	M1
TTP	51	200	5	B	0	M1
TAP	51	224	2
TTP	51	228	2	E	0	M1
TTP	51	232	1	B	0	M1
TAP	51	256	7
TTP	51	260	7	E	0	M1
TAP	51	288	3
TTP	51	292	4	E	0	M1
TTP	51	296	4	B	0	M1
TAP	51	320	7
TTP	51	324	0	E	0	M1
TTP	51	328	0	B	0	M1
TAP	51	352	2
TTP	51	356	3	E	0	M1
TAP	52	0	6
TTP	52	4	6	E	0	M1
TTP	52	8	5	B	0	M1
TAP	52	32	2
TTP	52	36	2	E	0	M1
TTP	52	40	1	B	0	M1
TAP	52	64	7
TTP	52	68	7	E	0	M1
TAP	52	96	3
TTP	52	100	4	E	0	M1
TTP	52	104	4	B	0	M1
TAP	52	128	7
TTP	52	132	0	E	0	M1
TTP	52	136	0	B	0	M1
TAP	52	160	2
TTP	52	164	3	E	0	M1
TAP	52	192	6
TTP	52	196	6	E	0	M1
TTP	52	200	5	B	0	M1
TAP	52	224	2
TTP	52	228	2	E	0	M1
TTP	52	232	1	B	0	M1
TAP	52	256	7
TTP	52	260	7	E	0	M1
TAP	52	288	0
TAP	52	312	2
HLD	52	336	4	48
TAP	53	0	7
TAP	53	24	5
HLD	53	48	2	48
TAP	53	96	1
TAP	53	120	3
HLD	53	144	5	48
TAP	53	192	6
TAP	53	216	4
HLD	53	240	1	48
TAP	53	288	0
TAP	53	312	2
HLD	53	336	6	48
TAP	54	0	7
TAP	54	24	5
HLD	54	48	0	48
TAP	54	96	7
TAP	54	120	1
HLD	54	144	7	48
TAP	54	192	6
TAP	54	216	0
HLD	54	240	1	48
TAP	54	288	0
TAP	54	312	2
HLD	54	336	6	48
TAP	55	0	0
TAP	55	24	2
TAP	55	48	3
TAP	55	48	7
TAP	55	72	5
TAP	55	96	0
TAP	55	96	4
TAP	55	120	2
TAP	55	144	3
TAP	55	144	7
TAP	55	168	5
TAP	55	192	0
TAP	55	192	4
TAP	55	216	2
TAP	55	240	3
TAP	55	240	7
TAP	55	264	5
TAP	55	288	0
TAP	55	288	4
TAP	55	312	2
TAP	55	336	3
TAP	55	336	7
TAP	55	360	5
BRK	56	0	0
BRK	56	0	4
TAP	56	48	2
BRK	56	96	3
BRK	56	96	7
TAP	56	144	5
TAP	56	168	2
TAP	56	192	7
TAP	56	216	0
TAP	56	240	1
TAP	56	240	6
TTP	56	288	2	B	0	M1
TTP	56	288	3	B	0	M1
TTP	56	288	4	B	0	M1
TTP	56	288	4	E	0	M1
TTP	56	288	5	B	0	M1
TAP	57	0	2
TAP	57	24	3
TAP	57	48	4
TAP	57	72	3
TAP	57	96	1
TTP	57	100	1	B	0	M1
TAP	57	120	5
TTP	57	124	5	B	0	M1
TAP	58	0	5
TAP	58	24	4
TAP	58	48	3
TAP	58	72	4
TAP	58	96	6
TTP	58	100	6	B	0	M1
TAP	58	120	2
TTP	58	124	2	B	0	M1
TAP	59	0	2
TAP	59	24	3
TAP	59	48	4
TAP	59	72	3
TAP	59	96	1
TTP	59	100	1	B	0	M1
TAP	59	120	5
TTP	59	124	5	B	0	M1
TAP	60	0	5
TAP	60	24	4
TAP	60	48	3
TAP	60	72	4
TAP	60	96	6
TTP	60	100	6	B	0	M1
TAP	60	120	2
TTP	60	124	2	B	0	M1
TAP	60	192	7
TAP	60	216	7
TAP	60	240	0
TAP	60	264	0
TAP	60	288	6
TTP	60	292	6	B	0	M1
TAP	60	312	7
TTP	60	316	7	B	0	M1
TAP	60	336	0
TTP	60	340	0	B	0	M1
TAP	60	360	1
TTP	60	364	1	B	0	M1

T_REC_TAP	539
T_REC_BRK	12
T_REC_XTP	24
T_REC_HLD	70
T_REC_XHO	0
T_REC_STR	1
T_REC_BST	0
T_REC_XST	0
T_REC_TTP	248
T_REC_THO	2
T_REC_SLD	1
T_REC_ALL	897
T_NUM_TAP	812
T_NUM_BRK	12
T_NUM_HLD	72
T_NUM_SLD	1
T_NUM_ALL	897
T_JUDGE_TAP	824
T_JUDGE_HLD	200
T_JUDGE_SLD	1
T_JUDGE_ALL	1025
TTM_EACHPAIRS	100
TTM_SCR_TAP	406000
TTM_SCR_BRK	31200
TTM_SCR_HLD	72000
TTM_SCR_SLD	1500
TTM_SCR_ALL	510700
TTM_SCR_S	494250
TTM_SCR_SS	509500
TTM_RAT_ACV	10023

