VERSION	0.00.00	1.03.00
FES_MODE	0
BPM_DEF	100.000	100.000	100.000	100.000
MET_DEF	4	4
RESOLUTION	384
CLK_DEF	384
COMPATIBLE_CODE	MA2

BPM	0	0	100.000
MET	0	0	4	4

THO	1	0	0	96	C	0	M1
THO	2	0	0	96	C	0	M1
THO	3	0	0	96	C	0	M1
THO	4	0	0	96	C	0	M1
TAP	4	192	4
TAP	4	216	4
TAP	4	240	4
TAP	4	264	4
TAP	4	288	3
TAP	4	312	3
TAP	4	336	3
TAP	4	360	3
THO	5	0	0	96	C	0	M1
TAP	5	144	3
TAP	5	192	3
TAP	5	264	3
TAP	5	336	3
THO	6	0	0	96	C	0	M1
TAP	6	144	4
TAP	6	192	4
TAP	6	264	4
TAP	6	336	4
THO	7	0	0	96	C	0	M1
TAP	7	144	3
TAP	7	192	3
TAP	7	264	3
TAP	7	336	3
THO	8	0	0	96	C	0	M1
TAP	8	144	4
HLD	8	192	4	24
TAP	8	240	3
TAP	8	264	3
TAP	8	288	4
TAP	8	312	4
TAP	8	336	3
TAP	8	360	3
XHO	9	0	1	96
TAP	9	0	5
TAP	9	48	5
TAP	9	96	4
XHO	9	144	1	336
TAP	9	144	2
TAP	9	192	3
TAP	9	240	3
TAP	9	288	2
TAP	9	336	4
TAP	10	0	4
TAP	10	48	2
TAP	10	96	3
XHO	10	144	1	192
TAP	10	144	4
TAP	10	192	2
TAP	10	240	3
TAP	10	288	4
TAP	10	336	3
TAP	11	0	2
XHO	11	0	6	96
TAP	11	48	2
TAP	11	96	3
TAP	11	144	5
XHO	11	144	6	576
TAP	11	192	4
TAP	11	240	4
TAP	11	288	5
TAP	11	336	3
TAP	12	0	3
TAP	12	48	5
TAP	12	96	4
TAP	12	144	3
TAP	12	192	5
TAP	12	240	4
HLD	12	288	1	48
XTP	13	0	3
XHO	13	0	4	48
TAP	13	48	0
TAP	13	96	0
XHO	13	96	5	48
TAP	13	144	3
TAP	13	192	1
XHO	13	192	4	48
TAP	13	240	2
TAP	13	288	2
XHO	13	288	5	48
TAP	13	336	1
TAP	14	0	3
XHO	14	0	4	48
TAP	14	48	3
TAP	14	96	1
XHO	14	96	5	48
TAP	14	144	2
TAP	14	192	3
XHO	14	192	4	48
TAP	14	240	1
TAP	14	288	2
XHO	14	288	5	48
TAP	14	312	2
TAP	14	336	2
TAP	14	360	2
XHO	15	0	3	24
XTP	15	0	4
XHO	15	48	2	24
TAP	15	48	7
XHO	15	96	3	24
TAP	15	96	7
XHO	15	144	2	24
TAP	15	144	4
XHO	15	192	3	24
TAP	15	192	6
XHO	15	240	2	24
HLD	15	240	5	48
XHO	15	288	3	24
XHO	15	336	2	24
TAP	15	336	4
XTP	16	0	3
XTP	16	0	5
XTP	16	24	3
XTP	16	24	5
XTP	16	48	3
XTP	16	48	5
XTP	16	72	3
XTP	16	72	5
HLD	16	96	4	96
TAP	16	144	6
HLD	16	192	3	96
TAP	16	240	1
TTP	16	288	0	C	0	M1
XHO	17	0	3	48
HLD	17	0	4	48
TAP	17	96	1
HLD	17	96	4	48
TAP	17	144	3
HLD	17	192	4	48
TAP	17	216	3
TAP	17	264	3
HLD	17	288	6	48
TAP	17	336	3
XHO	18	0	3	48
HLD	18	0	4	48
TAP	18	96	1
HLD	18	96	4	48
TAP	18	144	3
HLD	18	192	4	48
TAP	18	216	3
TAP	18	264	3
HLD	18	288	6	48
TAP	18	336	3
XHO	19	0	3	48
HLD	19	0	4	48
TAP	19	96	1
HLD	19	96	4	48
TAP	19	144	3
HLD	19	192	4	48
TAP	19	216	3
TAP	19	264	3
HLD	19	288	6	48
TAP	19	336	3
XHO	20	0	3	48
HLD	20	0	4	48
XHO	20	96	3	48
HLD	20	96	5	48
XHO	20	192	3	48
STR	20	192	6
SCL	20	192	6	96	48	4
HLD	21	0	2	48
XHO	21	0	3	48
HLD	21	96	2	48
TAP	21	96	6
TAP	21	144	3
HLD	21	192	2	48
TAP	21	216	3
TAP	21	264	3
HLD	21	288	0	48
TAP	21	336	3
HLD	22	0	2	48
XHO	22	0	3	48
HLD	22	96	2	48
TAP	22	96	6
TAP	22	144	3
HLD	22	192	2	48
TAP	22	216	3
TAP	22	264	3
HLD	22	288	0	48
TAP	22	336	3
HLD	23	0	2	48
XHO	23	0	3	48
HLD	23	96	2	48
TAP	23	96	6
TAP	23	144	3
HLD	23	192	2	48
TAP	23	216	3
TAP	23	264	3
HLD	23	288	0	48
TAP	23	336	3
HLD	24	0	0	48
XHO	24	0	3	48
HLD	24	96	1	48
XHO	24	96	3	48
STR	24	192	2
SCL	24	192	2	96	48	0
XHO	24	192	3	48
XHO	25	0	4	48
HLD	25	0	5	48
TAP	25	96	1
HLD	25	96	5	48
TAP	25	144	4
HLD	25	192	5	48
TAP	25	216	4
TAP	25	264	4
HLD	25	288	7	48
TAP	25	336	4
XHO	26	0	4	48
HLD	26	0	5	48
TAP	26	96	1
HLD	26	96	5	48
TAP	26	144	4
HLD	26	192	5	48
TAP	26	216	4
TAP	26	264	4
HLD	26	288	7	48
TAP	26	336	4
XHO	27	0	4	48
HLD	27	0	5	48
TAP	27	96	1
HLD	27	96	5	48
TAP	27	144	4
HLD	27	192	5	48
TAP	27	216	4
TAP	27	264	4
HLD	27	288	7	48
TAP	27	336	4
XHO	28	0	4	48
HLD	28	0	7	48
XHO	28	96	4	48
HLD	28	96	6	48
XHO	28	192	4	48
STR	28	192	5
SCR	28	192	5	96	48	7
STR	28	288	1
SI_	28	288	1	96	48	5
STR	29	0	3
SCL	29	0	3	96	48	1
STR	29	96	7
SI_	29	96	7	96	48	3
STR	29	192	2
SCL	29	192	2	96	48	0
STR	29	288	6
SI_	29	288	6	96	48	2
STR	30	0	4
SCR	30	0	4	96	48	6
STR	30	96	0
SI_	30	96	0	96	48	4
STR	30	192	7
SI_	30	192	7	96	48	3
STR	30	288	4
SCR	30	288	4	96	384	3
TTP	31	0	4	E	0	M1
TTP	31	48	3	E	0	M1
TTP	31	96	2	E	0	M1
TTP	31	144	1	E	0	M1
TTP	31	192	0	E	0	M1
TTP	31	240	7	E	0	M1
TTP	31	288	6	E	0	M1
TTP	31	336	5	E	0	M1
TTP	32	0	4	E	0	M1
TAP	32	48	1
TAP	32	48	6
TAP	32	96	1
TAP	32	96	6
TAP	32	144	3
TAP	32	144	4
TAP	32	192	1
TAP	32	192	6
TAP	32	240	2
TAP	32	240	5
BST	32	288	0
SUL	32	288	0	96	1248	7
BRK	32	288	7
THO	33	0	0	96	C	0	M1
THO	34	0	0	96	C	0	M1
THO	35	0	0	96	C	0	M1
THO	36	0	0	96	C	0	M1
TAP	36	144	3
TAP	36	144	4
TAP	36	192	0
TAP	36	216	0
TAP	36	240	0
TAP	36	264	0
TAP	36	288	0
TAP	36	312	0
XTP	36	336	0
XTP	36	336	4
XHO	37	0	3	72
HLD	37	0	7	24
HLD	37	48	7	24
XHO	37	96	2	72
HLD	37	96	6	24
HLD	37	144	6	24
XHO	37	192	1	72
HLD	37	192	5	24
HLD	37	240	5	24
XHO	37	288	0	72
HLD	37	288	4	24
HLD	37	336	4	24
HLD	38	0	3	24
XHO	38	0	7	72
HLD	38	48	3	24
HLD	38	96	2	24
XHO	38	96	6	72
HLD	38	144	2	24
HLD	38	192	1	24
XHO	38	192	5	72
HLD	38	240	1	24
HLD	38	288	0	24
XHO	38	288	4	72
HLD	38	336	0	24
TAP	39	0	0
TAP	39	24	0
TAP	39	48	7
TAP	39	72	7
TAP	39	96	0
TAP	39	120	0
TAP	39	144	7
TAP	39	168	7
TAP	39	192	0
TAP	39	216	0
TAP	39	240	7
TAP	39	264	7
TAP	39	288	0
TAP	39	312	0
TAP	39	336	7
TAP	39	360	7
TAP	40	0	0
TAP	40	12	7
TAP	40	24	0
TAP	40	36	7
TAP	40	48	0
TAP	40	60	7
TAP	40	72	0
TAP	40	84	7
TAP	40	96	0
TAP	40	108	7
TAP	40	120	0
TAP	40	132	7
TAP	40	144	0
TAP	40	156	7
TAP	40	168	0
TAP	40	180	7
TAP	40	192	1
TAP	40	204	7
TAP	40	216	0
TAP	40	228	7
TAP	40	240	0
TAP	40	252	7
TAP	40	264	0
TAP	40	276	7
TAP	40	288	0
TAP	40	300	7
TAP	40	312	0
TAP	40	324	7
TAP	40	336	0
TAP	40	348	7
TAP	40	360	0
TAP	40	372	7
XHO	41	0	1	240
TAP	41	48	2
TAP	41	120	2
TAP	41	192	2
XHO	41	240	2	144
HLD	41	288	1	48
XHO	42	0	3	120
TAP	42	48	4
TAP	42	120	4
XHO	42	144	3	96
TAP	42	192	4
XHO	42	240	4	144
HLD	42	288	3	48
HLD	43	0	5	120
TAP	43	48	6
TAP	43	120	6
XHO	43	144	5	96
TAP	43	192	6
XHO	43	240	6	96
STR	43	288	5
SI_	43	288	5	96	48	3
STR	44	0	7
SI_	44	0	7	96	48	1
STR	44	96	6
SI_	44	96	6	96	48	2
HLD	44	192	4	96
TAP	44	288	3
TAP	44	312	4
TAP	44	336	3
HLD	45	0	6	120
TAP	45	48	5
TAP	45	120	5
XHO	45	144	6	96
TAP	45	192	5
XHO	45	240	5	144
HLD	45	288	6	48
HLD	46	0	4	120
TAP	46	48	3
TAP	46	120	3
XHO	46	144	4	96
TAP	46	192	3
XHO	46	240	3	144
HLD	46	288	4	48
HLD	47	0	2	120
TAP	47	48	1
TAP	47	120	1
XHO	47	144	2	96
TAP	47	192	1
XHO	47	240	1	96
STR	47	288	2
SI_	47	288	2	96	48	4
STR	48	0	0
SI_	48	0	0	96	48	6
STR	48	96	1
SI_	48	96	1	96	48	5
HLD	48	192	3	96
TAP	48	288	4
TAP	48	312	3
TAP	48	336	4
BRK	49	0	0
HLD	49	96	6	96
XTP	49	96	7
TAP	49	128	5
TAP	49	160	4
TAP	49	192	5
TAP	49	224	4
XTP	49	240	5
TAP	49	256	3
HLD	49	288	4	96
TAP	49	320	3
TAP	49	352	2
XHO	50	0	3	96
TAP	50	32	2
TAP	50	64	1
HLD	50	96	2	96
TAP	50	128	3
TAP	50	160	4
TAP	50	192	3
TAP	50	224	4
XTP	50	240	3
TAP	50	256	5
XHO	50	288	4	96
TAP	50	320	5
TAP	50	352	6
BRK	51	0	7
XTP	51	96	0
HLD	51	96	1	96
TAP	51	128	2
TAP	51	160	3
TAP	51	192	2
TAP	51	224	3
XTP	51	240	2
TAP	51	256	4
HLD	51	288	3	96
TAP	51	320	4
TAP	51	352	5
XHO	52	0	4	96
TAP	52	32	5
TAP	52	64	6
XTP	52	96	5
TAP	52	120	4
TAP	52	144	3
TAP	52	168	2
XHO	52	192	4	96
TAP	52	224	3
TAP	52	256	2
STR	52	288	3
SI_	52	288	3	96	48	1
STR	53	0	7
SI_	53	0	7	96	48	3
STR	53	96	1
SI_	53	96	1	96	48	7
STR	53	192	5
SI_	53	192	5	96	48	1
STR	53	288	7
SI_	53	288	7	96	48	5
STR	54	0	3
SI_	54	0	3	96	48	7
STR	54	96	5
SI_	54	96	5	96	48	3
STR	54	192	1
SI_	54	192	1	96	48	5
STR	54	288	3
SCL	54	288	3	96	384	4
TTP	55	0	0	E	0	M1
TTP	55	48	7	E	0	M1
TTP	55	96	6	E	0	M1
TTP	55	144	5	E	0	M1
TTP	55	192	4	E	0	M1
TTP	55	240	3	E	0	M1
TTP	55	288	2	E	0	M1
TTP	55	336	1	E	0	M1
TTP	56	0	0	E	0	M1
TAP	56	48	2
TAP	56	48	5
TAP	56	96	2
TAP	56	96	5
TAP	56	144	0
TAP	56	144	7
TAP	56	192	2
TAP	56	192	5
TAP	56	240	1
TAP	56	240	6
BRK	56	288	3
BST	56	288	4
SUL	56	288	4	96	1248	3
THO	57	0	0	96	C	0	M1
THO	58	0	0	96	C	0	M1
THO	59	0	0	96	C	0	M1
THO	60	0	0	96	C	0	M1
TAP	60	144	1
TAP	60	144	6
TAP	60	192	3
TAP	60	216	3
TAP	60	240	3
TAP	60	264	3
TAP	60	288	4
TAP	60	312	4
TAP	60	336	4
TAP	60	360	4

T_REC_TAP	266
T_REC_BRK	4
T_REC_XTP	18
T_REC_HLD	78
T_REC_XHO	64
T_REC_STR	27
T_REC_BST	2
T_REC_XST	0
T_REC_TTP	19
T_REC_THO	16
T_REC_SLD	29
T_REC_ALL	523
T_NUM_TAP	330
T_NUM_BRK	6
T_NUM_HLD	158
T_NUM_SLD	29
T_NUM_ALL	523
T_JUDGE_TAP	336
T_JUDGE_HLD	454
T_JUDGE_SLD	29
T_JUDGE_ALL	819
TTM_EACHPAIRS	76
TTM_SCR_TAP	165000
TTM_SCR_BRK	15600
TTM_SCR_HLD	158000
TTM_SCR_SLD	43500
TTM_SCR_ALL	382100
TTM_SCR_S	370100
TTM_SCR_SS	381500
TTM_RAT_ACV	10015

