VERSION	0.00.00	1.03.00
FES_MODE	0
BPM_DEF	100.000	100.000	100.000	100.000
MET_DEF	4	4
RESOLUTION	384
CLK_DEF	384
COMPATIBLE_CODE	MA2

BPM	0	0	100.000
MET	0	0	4	4

THO	1	0	0	384	C	0	L1
THO	3	0	0	384	C	0	L1
TTP	5	0	4	B	0	L1
TTP	5	0	5	B	0	L1
TTP	5	96	2	B	0	L1
TTP	5	96	3	B	0	L1
THO	5	192	0	192	C	0	L1
TTP	6	192	1	B	0	L1
TTP	6	192	6	B	0	L1
TTP	7	0	2	B	0	L1
TTP	7	0	3	B	0	L1
TTP	7	96	4	B	0	L1
TTP	7	96	5	B	0	L1
THO	7	192	0	192	C	0	L1
XTP	8	192	0
XTP	8	192	7
TAP	9	0	2
TAP	9	96	3
TAP	9	192	4
TAP	9	240	4
TAP	9	288	4
TAP	10	0	5
TAP	10	96	6
TAP	10	192	7
TAP	10	240	7
XTP	10	288	7
TAP	11	0	0
TAP	11	0	7
TAP	11	96	1
TAP	11	192	2
TAP	11	240	2
XTP	11	288	2
TAP	12	0	2
TAP	12	0	3
TAP	12	96	3
TAP	12	96	4
XTP	12	192	2
XTP	12	192	5
TAP	13	0	3
TAP	13	96	2
TAP	13	192	1
TAP	13	288	0
TAP	14	0	7
TAP	14	96	6
HLD	14	192	2	96
HLD	14	192	5	96
STR	15	0	3
SCL	15	0	3	96	288	4
TAP	16	192	2
TAP	16	192	5
BRK	16	288	7
XHO	17	0	4	96
XHO	17	0	6	96
HLD	17	192	4	96
HLD	17	192	5	96
XHO	18	0	1	96
XHO	18	0	3	96
HLD	18	192	2	96
HLD	18	192	3	96
HLD	19	0	3	96
HLD	19	0	4	96
HLD	19	192	2	96
HLD	19	192	5	96
HLD	20	0	7	96
TAP	20	96	0
XTP	20	192	1
XTP	20	192	6
XHO	21	0	1	96
XHO	21	0	3	96
HLD	21	192	2	96
TAP	21	192	3
TAP	21	288	3
XHO	22	0	4	96
XHO	22	0	6	96
TAP	22	192	4
HLD	22	192	5	96
TAP	22	288	4
HLD	23	0	3	96
HLD	23	0	4	96
TAP	23	192	2
TAP	23	192	5
TAP	23	288	1
XTP	24	0	0
XTP	24	0	5
XTP	24	96	1
XTP	24	96	6
XTP	24	192	2
XTP	24	192	7
BRK	24	288	0
BRK	24	288	1
HLD	25	0	2	96
TAP	25	96	3
TAP	25	192	4
TAP	25	288	5
HLD	26	0	6	96
TAP	26	96	4
TAP	26	192	7
XTP	26	288	0
XTP	26	288	7
XTP	27	0	1
XTP	27	0	6
TAP	27	96	2
TAP	27	96	5
HLD	27	192	3	96
HLD	27	192	4	96
XTP	28	0	1
XTP	28	0	3
XTP	28	96	4
XTP	28	96	6
XTP	28	192	2
XTP	28	192	5
HLD	29	0	1	192
HLD	29	192	2	192
HLD	30	0	3	192
HLD	30	192	4	192
TAP	31	0	5
TAP	31	96	5
TAP	31	192	6
TAP	31	288	6
HLD	32	0	1	96
HLD	32	0	7	96
TAP	32	192	0
BRK	32	288	1
BRK	32	288	6
STR	33	0	7
SCL	33	0	7	96	192	4
STR	34	0	3
SCL	34	0	3	96	192	0
STR	35	0	7
SCL	35	0	7	96	192	4
THO	36	0	0	192	C	0	L1
XTP	37	0	7
TAP	37	96	6
TAP	37	192	4
TAP	37	192	5
TAP	37	288	3
TAP	37	288	4
TAP	38	0	3
TAP	38	96	2
TAP	38	192	1
TAP	38	192	4
TAP	38	288	2
TAP	39	0	4
TAP	39	48	4
TAP	39	96	4
TAP	39	192	3
TAP	39	240	3
STR	39	288	3
SUR	39	288	3	96	192	4
XTP	40	288	2
XTP	40	288	5
HLD	41	0	2	96
TAP	41	96	3
HLD	41	192	4	96
TAP	41	288	3
HLD	42	0	1	96
TAP	42	96	0
TAP	42	192	7
TAP	42	240	7
XTP	42	288	0
XTP	42	288	7
XHO	43	0	6	96
TAP	43	96	4
HLD	43	192	2	96
TAP	43	288	4
XTP	44	0	3
XTP	44	0	5
XTP	44	96	2
XTP	44	96	4
XTP	44	192	3
XTP	44	192	6
BRK	44	288	0
XHO	45	0	6	96
XHO	45	0	7	96
TAP	45	192	4
TAP	45	192	5
TAP	45	288	5
TAP	46	0	2
TAP	46	0	3
TAP	46	96	2
TAP	46	192	0
TAP	46	192	1
XTP	46	288	1
BST	47	0	0
SSL	47	0	0	96	192	4
BRK	47	0	7
XTP	48	0	3
XTP	48	0	5
XTP	48	96	1
XTP	48	96	4
XHO	48	192	3	96
XHO	48	192	6	96
TAP	49	0	7
TAP	49	48	7
TAP	49	96	0
TAP	49	96	7
TAP	49	192	6
TAP	49	240	6
TAP	49	288	4
TAP	49	288	6
TAP	50	0	5
TAP	50	48	5
TAP	50	96	4
TAP	50	96	5
STR	50	192	3
SCL	50	192	3	96	96	0
STR	51	0	7
SI_	51	0	7	96	96	3
TAP	51	192	2
TAP	51	240	2
XHO	51	288	2	96
TAP	52	0	4
TAP	52	48	4
TAP	52	96	3
TAP	52	144	3
XHO	52	192	3	96
XHO	52	192	4	96
TTP	53	0	3	E	0	L1
TTP	53	96	2	E	0	L1
TTP	53	192	1	E	0	L1
TTP	53	288	0	E	0	L1
TTP	54	0	7	E	0	L1
TTP	54	96	6	E	0	L1
TTP	54	192	5	E	0	L1
TTP	54	288	4	E	0	L1
TTP	55	0	3	B	0	L1
TTP	55	0	4	B	0	L1
TTP	55	96	2	B	0	L1
TTP	55	96	5	B	0	L1
TTP	55	192	2	E	0	L1
TTP	55	192	6	E	0	L1
TTP	55	288	1	B	0	L1
TTP	55	288	6	B	0	L1
TAP	56	0	0
TAP	56	48	0
TAP	56	96	7
TAP	56	144	7
TAP	56	192	0
TAP	56	240	0
BRK	56	288	1
BRK	56	288	6
HLD	57	0	7	576
THO	58	0	0	192	C	0	L1
HLD	59	0	0	744
THO	60	0	0	360	C	0	L1

T_REC_TAP	100
T_REC_BRK	9
T_REC_XTP	40
T_REC_HLD	31
T_REC_XHO	16
T_REC_STR	7
T_REC_BST	1
T_REC_XST	0
T_REC_TTP	26
T_REC_THO	7
T_REC_SLD	8
T_REC_ALL	245
T_NUM_TAP	173
T_NUM_BRK	10
T_NUM_HLD	54
T_NUM_SLD	8
T_NUM_ALL	245
T_JUDGE_TAP	183
T_JUDGE_HLD	330
T_JUDGE_SLD	8
T_JUDGE_ALL	521
TTM_EACHPAIRS	54
TTM_SCR_TAP	86500
TTM_SCR_BRK	26000
TTM_SCR_HLD	54000
TTM_SCR_SLD	12000
TTM_SCR_ALL	178500
TTM_SCR_S	172200
TTM_SCR_SS	177500
TTM_RAT_ACV	10056

