VERSION	0.00.00	1.03.00
FES_MODE	0
BPM_DEF	100.000	100.000	100.000	100.000
MET_DEF	4	4
RESOLUTION	384
CLK_DEF	384
COMPATIBLE_CODE	MA2

BPM	0	0	100.000
MET	0	0	4	4

HLD	5	0	3	96
HLD	6	0	3	96
HLD	7	0	4	96
HLD	8	0	4	96
TAP	9	0	3
TAP	9	0	4
TAP	9	192	3
TAP	9	288	3
TAP	10	0	4
TAP	10	96	4
TAP	10	192	3
TAP	10	192	4
TAP	11	0	3
TAP	11	0	4
TAP	11	192	4
TAP	11	288	4
TAP	12	0	3
TAP	12	96	3
TAP	12	192	3
TAP	12	192	4
TAP	13	0	2
TAP	13	0	3
TAP	13	192	4
TAP	13	192	5
TAP	14	0	6
TAP	14	0	7
TAP	14	192	0
TAP	14	192	1
TAP	15	0	7
TAP	15	96	7
TAP	15	192	0
TAP	15	288	0
BRK	16	0	7
TAP	17	0	0
TAP	17	192	0
TAP	18	0	1
TAP	18	192	1
TAP	19	0	2
TAP	19	192	2
TAP	20	0	3
TAP	20	0	4
TAP	20	96	3
TAP	20	96	4
TAP	20	192	3
TAP	20	192	4
TAP	21	0	4
TAP	21	192	4
TAP	22	0	5
TAP	22	192	5
TAP	23	0	6
TAP	23	192	6
TAP	24	0	0
TAP	24	0	7
TAP	24	96	0
TAP	24	96	7
BRK	24	192	0
BRK	24	192	7
HLD	25	0	0	192
HLD	26	0	7	192
HLD	27	0	0	192
TAP	28	0	6
TAP	28	0	7
TAP	28	96	6
TAP	28	96	7
TAP	28	192	6
TAP	28	192	7
HLD	29	0	5	192
HLD	30	0	4	192
TAP	31	0	3
TAP	31	96	3
TAP	31	192	2
TAP	31	288	2
TAP	32	0	2
TAP	32	0	3
TAP	32	96	2
TAP	32	96	3
BRK	32	192	2
BRK	32	192	3
TTP	33	0	1	B	0	L1
TTP	34	0	7	B	0	L1
TTP	35	0	0	B	0	L1
TTP	36	0	6	B	0	L1
TTP	37	0	5	B	0	L1
TTP	37	192	4	B	0	L1
TTP	38	0	3	B	0	L1
TTP	38	192	2	B	0	L1
THO	39	0	0	384	C	1	L1
TAP	41	0	0
TAP	41	96	0
TAP	41	192	0
TAP	42	0	1
TAP	42	96	1
TAP	42	192	1
TAP	43	0	2
TAP	43	96	2
TAP	43	192	2
TAP	44	0	2
TAP	44	0	3
TAP	44	96	2
TAP	44	96	3
TAP	44	192	2
TAP	44	192	3
TAP	45	0	4
TAP	45	96	4
TAP	45	192	4
TAP	46	0	5
TAP	46	96	5
TAP	46	192	5
TAP	47	0	6
TAP	47	96	6
TAP	47	192	6
TAP	48	0	6
TAP	48	0	7
TAP	48	96	6
TAP	48	96	7
BRK	48	192	6
BRK	48	192	7
STR	49	0	0
SI_	49	0	0	96	288	3
STR	51	0	7
SI_	51	0	7	96	288	4
TAP	53	0	3
TAP	53	96	3
TAP	53	192	2
TAP	53	288	2
TAP	54	0	1
TAP	54	96	1
TAP	54	192	0
TAP	54	288	0
TAP	55	0	7
TAP	55	48	7
TAP	55	96	7
TAP	55	192	6
TAP	55	240	6
TAP	55	288	6
TAP	56	0	4
TAP	56	0	5
TAP	56	96	4
TAP	56	96	5
XTP	56	192	4
XTP	56	192	5
TTP	57	0	0	C	0	L1
TTP	58	0	0	C	0	L1
TTP	59	0	0	C	0	L1
TTP	60	0	0	C	0	L1
HLD	60	192	0	168
HLD	60	192	7	168

T_REC_TAP	110
T_REC_BRK	7
T_REC_XTP	2
T_REC_HLD	11
T_REC_XHO	0
T_REC_STR	2
T_REC_BST	0
T_REC_XST	0
T_REC_TTP	12
T_REC_THO	1
T_REC_SLD	2
T_REC_ALL	147
T_NUM_TAP	126
T_NUM_BRK	7
T_NUM_HLD	12
T_NUM_SLD	2
T_NUM_ALL	147
T_JUDGE_TAP	133
T_JUDGE_HLD	86
T_JUDGE_SLD	2
T_JUDGE_ALL	221
TTM_EACHPAIRS	30
TTM_SCR_TAP	63000
TTM_SCR_BRK	18200
TTM_SCR_HLD	12000
TTM_SCR_SLD	3000
TTM_SCR_ALL	96200
TTM_SCR_S	92650
TTM_SCR_SS	95500
TTM_RAT_ACV	10073

