VERSION	0.00.00	1.03.00
FES_MODE	0
BPM_DEF	160.000	160.000	160.000	160.000
MET_DEF	4	4
RESOLUTION	384
CLK_DEF	384
COMPATIBLE_CODE	MA2

BPM	0	0	160.000
MET	0	0	4	4

XTP	1	0	2
XTP	1	0	3
TAP	1	24	2
TAP	1	24	3
TAP	1	72	1
TAP	1	72	4
XTP	1	144	4
XTP	1	144	5
TAP	1	168	4
TAP	1	168	5
TAP	1	216	3
HLD	1	216	6	72
BRK	1	288	0
BRK	1	312	7
BRK	1	336	0
XTP	2	0	6
XTP	2	0	7
TAP	2	24	6
TAP	2	24	7
TAP	2	72	0
TAP	2	72	5
XTP	2	144	0
XTP	2	144	1
TAP	2	168	0
TAP	2	168	1
HLD	2	216	2	72
TAP	2	216	7
TAP	2	288	4
TAP	2	312	3
TAP	2	336	4
XTP	3	0	4
XTP	3	0	5
TAP	3	24	4
TAP	3	24	5
TAP	3	72	3
TAP	3	72	6
XTP	3	144	2
XTP	3	144	3
TAP	3	168	2
TAP	3	168	3
HLD	3	216	1	48
HLD	3	216	4	48
XTP	3	288	1
XTP	3	288	5
XTP	3	336	2
XTP	3	336	6
XST	4	0	3
SV_	4	0	3	96	48	0
XST	4	0	7
SV_	4	0	7	96	48	4
XTP	4	96	3
XTP	4	96	7
TTP	4	97	0	C	1	M1
TAP	5	0	3
HLD	5	0	4	384
TAP	5	96	5
TAP	5	288	5
HLD	6	0	3	384
TAP	6	96	2
TAP	6	288	2
HLD	7	0	4	384
TTP	7	96	4	B	0	M1
TTP	7	96	5	B	0	M1
TTP	7	288	5	B	0	M1
TTP	7	288	6	B	0	M1
HLD	8	0	3	384
TTP	8	96	2	B	0	M1
TTP	8	96	3	B	0	M1
TTP	8	288	1	B	0	M1
TTP	8	288	2	B	0	M1
TAP	9	0	4
TAP	9	48	4
TAP	9	96	3
TAP	9	144	3
TAP	9	192	5
TAP	9	240	5
TAP	9	288	2
TAP	9	336	2
TAP	10	0	5
TAP	10	48	5
TAP	10	96	4
TAP	10	144	4
TAP	10	192	3
TAP	10	240	3
TAP	10	288	2
TAP	10	336	2
TAP	11	0	3
TAP	11	0	4
TAP	11	48	3
TAP	11	48	4
TAP	11	96	4
TAP	11	96	5
TAP	11	144	4
TAP	11	144	5
TAP	11	192	3
TAP	11	192	4
TAP	11	240	3
TAP	11	240	4
TAP	11	288	2
TAP	11	288	3
TAP	11	336	2
TAP	11	336	3
STR	12	0	2
SLR	12	0	2	96	144	0
STR	12	0	4
SLL	12	0	4	96	144	6
BRK	12	288	3
BRK	12	288	7
TAP	13	0	2
TAP	13	0	3
TAP	13	48	2
TAP	13	96	2
TAP	13	96	4
TAP	13	144	2
TAP	13	192	1
TAP	13	192	2
TAP	13	240	2
TAP	13	288	2
TAP	13	288	3
TAP	13	336	2
TAP	14	0	4
TAP	14	0	5
TAP	14	48	5
TAP	14	96	3
TAP	14	96	5
TAP	14	144	5
TAP	14	192	5
TAP	14	192	6
TAP	14	240	5
TAP	14	288	4
TAP	14	288	5
TAP	14	336	5
TAP	15	0	0
TAP	15	0	1
TAP	15	48	1
TAP	15	96	1
TAP	15	96	2
TAP	15	144	1
TAP	15	192	1
TAP	15	192	7
TAP	15	240	1
TAP	15	288	1
TAP	15	288	3
TAP	15	336	1
STR	16	0	7
SCL	16	0	7	96	48	4
SCR	16	0	7	96	48	2
STR	16	96	7
SF_	16	96	7	96	48	3
TAP	16	192	7
BRK	16	288	1
BRK	16	288	5
XTP	17	0	1
TAP	17	24	3
TAP	17	48	2
TAP	17	72	3
TAP	17	96	1
TAP	17	120	4
TAP	17	144	3
TAP	17	168	4
TAP	17	192	1
TAP	17	216	5
TAP	17	240	4
TAP	17	264	5
BRK	17	288	0
XTP	18	0	6
TAP	18	24	4
TAP	18	48	5
TAP	18	72	4
TAP	18	96	6
TAP	18	120	3
TAP	18	144	4
TAP	18	168	3
TAP	18	192	6
TAP	18	216	2
TAP	18	240	3
TAP	18	264	2
BRK	18	288	7
XTP	19	0	0
TAP	19	24	7
TAP	19	48	0
TAP	19	72	7
TAP	19	96	0
TAP	19	120	7
TAP	19	144	0
TAP	19	168	7
XTP	19	192	1
TAP	19	204	2
TAP	19	216	3
XTP	19	240	0
TAP	19	252	7
TAP	19	264	6
XTP	19	288	2
TAP	19	300	3
TAP	19	312	4
XTP	19	336	7
TAP	19	348	6
TAP	19	360	5
XTP	20	0	0
XTP	20	24	0
XTP	20	48	0
XTP	20	72	0
XTP	20	96	0
XTP	20	120	0
XTP	20	144	0
XTP	20	168	0
XTP	20	192	0
TTP	20	288	0	C	1	M1
TTP	20	288	1	B	0	M1
TTP	20	288	3	B	0	M1
TTP	20	288	5	B	0	M1
TTP	20	288	7	B	0	M1
HLD	21	0	0	144
TAP	21	144	3
TAP	21	192	2
STR	21	192	3
SI_	21	192	3	96	48	7
STR	21	288	0
SCR	21	288	0	96	96	4
TAP	21	288	3
HLD	22	0	6	24
HLD	22	48	6	24
HLD	22	96	6	24
TAP	22	144	6
TAP	22	192	5
TAP	22	192	6
TAP	22	240	4
TAP	22	240	5
TAP	22	288	3
TAP	22	288	4
TAP	22	336	2
TAP	22	336	3
HLD	23	0	0	24
STR	23	0	6
SCL	23	0	6	96	96	2
HLD	23	48	0	24
HLD	23	96	0	24
HLD	23	144	0	24
TAP	23	192	0
TAP	23	288	1
TAP	23	288	4
TTP	24	0	6	B	0	M1
TTP	24	0	7	B	0	M1
TTP	24	48	2	B	0	M1
TTP	24	48	3	B	0	M1
TTP	24	96	6	E	0	M1
TTP	24	120	5	B	0	M1
TTP	24	144	4	B	0	M1
TTP	24	168	4	E	0	M1
TAP	24	192	0
TAP	24	240	1
TAP	24	288	2
TAP	24	336	3
TAP	25	0	4
STR	25	0	5
SI_	25	0	5	96	48	7
TAP	25	48	3
TAP	25	96	5
TAP	25	120	4
TAP	25	168	4
STR	25	192	5
SI_	25	192	5	96	48	7
TAP	25	240	3
TAP	25	288	5
TAP	25	312	4
TAP	25	360	4
STR	26	0	5
SI_	26	0	5	96	48	7
TAP	26	48	2
TAP	26	96	5
TAP	26	120	4
TAP	26	168	4
TAP	26	192	7
TAP	26	240	3
TAP	26	240	6
BRK	26	288	0
BRK	26	288	1
TAP	27	0	2
HLD	27	0	6	312
TAP	27	96	5
TAP	27	168	5
TAP	27	240	5
TAP	27	312	5
HLD	28	0	1	240
TAP	28	0	4
TAP	28	96	2
TAP	28	168	2
TAP	28	240	2
TAP	28	288	3
TAP	28	288	4
STR	29	0	4
SI_	29	0	4	96	48	0
TAP	29	0	5
TAP	29	96	4
STR	29	96	7
SLL	29	96	7	96	96	3
HLD	29	192	1	24
HLD	29	240	1	24
HLD	29	288	1	24
TAP	29	336	1
TAP	30	0	1
TAP	30	0	2
TAP	30	48	2
TAP	30	48	3
TAP	30	96	3
TAP	30	96	4
TAP	30	144	4
TAP	30	144	5
STR	30	192	1
SLR	30	192	1	96	96	5
HLD	30	192	7	24
HLD	30	240	7	24
HLD	30	288	7	24
HLD	30	336	7	24
TAP	31	0	7
TAP	31	96	3
TAP	31	96	6
TTP	31	192	0	B	0	M1
TTP	31	192	1	B	0	M1
TTP	31	240	4	B	0	M1
TTP	31	240	5	B	0	M1
TTP	31	288	2	E	0	M1
TTP	31	312	2	B	0	M1
TTP	31	336	3	B	0	M1
TTP	31	360	4	E	0	M1
TAP	32	0	6
TAP	32	48	7
TAP	32	96	0
TAP	32	144	1
TAP	32	192	3
TAP	32	216	4
TAP	32	240	3
TAP	32	264	4
BRK	32	288	2
BRK	32	288	5
TAP	33	0	2
STR	33	0	3
SI_	33	0	3	96	48	7
STR	33	96	0
SLR	33	96	0	96	96	5
TAP	33	96	3
HLD	33	192	6	24
HLD	33	240	6	24
HLD	33	288	6	24
TAP	33	336	6
TAP	34	0	5
TAP	34	0	6
TAP	34	48	4
TAP	34	48	5
TAP	34	96	3
TAP	34	96	4
TAP	34	144	2
TAP	34	144	3
HLD	34	192	1	48
HLD	34	240	2	48
HLD	34	288	3	48
TAP	34	336	4
TTP	35	0	0	B	0	M1
TTP	35	0	0	C	1	M1
TTP	35	0	3	B	0	M1
TTP	35	0	4	B	0	M1
TTP	35	0	7	B	0	M1
TTP	35	144	0	C	1	M1
TTP	35	144	1	B	0	M1
TTP	35	144	2	B	0	M1
TTP	35	144	5	B	0	M1
TTP	35	144	6	B	0	M1
XST	35	288	0
SI_	35	288	0	96	48	4
XST	35	288	7
SI_	35	288	7	96	48	3
BST	36	0	0
SCR	36	0	0	96	192	7
BRK	36	0	7
TTP	36	1	0	C	1	M1
TTP	36	288	0	C	1	M1
TAP	37	0	0
HLD	37	0	5	72
TAP	37	72	4
TAP	37	96	5
TAP	37	144	5
TAP	37	192	4
TAP	37	192	6
TAP	37	240	5
TAP	37	288	1
TAP	37	288	3
TAP	37	336	2
TAP	38	0	3
TAP	38	0	4
TAP	38	48	5
TAP	38	96	6
TAP	38	96	7
TAP	38	144	0
TAP	38	192	2
TAP	38	216	3
TAP	38	240	2
BRK	38	288	1
BRK	38	288	4
XTP	39	0	2
TAP	39	24	2
XTP	39	72	6
TAP	39	96	6
XTP	39	144	0
TAP	39	168	0
XTP	39	216	4
TAP	39	240	4
TTP	39	288	2	B	0	M1
TTP	39	288	2	E	0	M1
TTP	39	288	3	B	0	M1
XTP	40	0	5
TAP	40	24	5
XTP	40	72	1
TAP	40	96	1
XTP	40	144	7
HLD	40	168	7	72
TAP	40	240	6
BRK	40	288	0
BRK	40	288	5
HLD	41	0	2	72
TAP	41	0	7
TAP	41	72	3
TAP	41	96	2
TAP	41	144	2
TAP	41	192	1
TAP	41	192	3
TAP	41	240	2
TAP	41	288	4
TAP	41	288	6
TAP	41	336	5
TAP	42	0	3
TAP	42	0	4
TAP	42	48	2
TAP	42	96	0
TAP	42	96	1
TAP	42	144	7
TAP	42	192	5
TAP	42	216	4
TAP	42	240	5
BRK	42	288	3
BRK	42	288	6
TAP	43	0	2
TAP	43	48	1
TAP	43	48	3
TAP	43	96	5
TAP	43	144	4
TAP	43	144	6
TAP	43	192	2
TAP	43	240	0
TAP	43	240	3
TAP	43	288	5
TAP	43	336	4
TAP	43	336	7
XTP	44	0	1
TAP	44	24	1
XTP	44	72	7
TAP	44	96	7
XTP	44	144	3
HLD	44	168	3	72
TAP	44	240	4
BRK	44	288	1
BRK	44	288	6
XST	45	0	3
SUR	45	0	3	96	192	4
XTP	45	0	4
TAP	46	0	3
TAP	46	24	5
TAP	46	48	3
TAP	46	72	5
TAP	46	96	2
TAP	46	120	6
TAP	46	144	2
TAP	46	168	6
TAP	46	192	1
TAP	46	216	7
TAP	46	240	1
TAP	46	264	7
STR	46	288	0
SF_	46	288	0	96	48	4
TAP	46	336	1
TAP	46	336	7
BST	47	0	0
SCL	47	0	0	96	1344	1
TTP	49	96	0	E	0	M1
TTP	49	288	6	E	0	M1
TTP	50	96	4	E	0	M1
TTP	50	288	2	E	0	M1
TAP	51	0	4
TAP	51	96	3
TAP	51	168	4
TAP	51	216	4
TAP	51	264	3
TAP	51	288	4
TAP	51	336	4
TAP	52	0	2
TAP	52	96	3
TAP	52	168	2
TAP	52	216	2
TAP	52	264	3
TAP	52	288	2
TAP	52	336	2
TAP	53	0	5
TAP	53	96	4
TAP	53	168	5
TAP	53	216	5
TAP	53	264	4
TAP	53	288	5
TAP	53	336	5
TAP	54	0	0
TAP	54	96	7
TAP	54	168	0
TAP	54	216	0
TAP	54	264	7
TAP	54	288	0
TAP	54	336	0
THO	55	0	0	1440	C	1	M1
TTP	55	0	2	E	0	M1
TTP	55	0	6	E	0	M1
TTP	56	96	1	E	0	M1
TTP	56	288	7	E	0	M1
TTP	57	96	2	B	0	M1
TTP	57	288	5	B	0	M1
TTP	58	96	0	E	0	M1
TTP	58	288	2	E	0	M1
TTP	58	288	6	E	0	M1
XTP	59	0	0
XTP	59	0	7
TAP	59	48	0
TAP	59	96	0
TAP	59	96	1
TAP	59	144	1
TAP	59	192	1
TAP	59	192	2
TAP	59	240	2
TAP	59	288	2
TAP	59	288	3
TAP	59	336	3
TAP	60	0	3
TAP	60	0	4
TAP	60	48	4
TAP	60	96	4
TAP	60	96	5
TAP	60	144	5
TAP	60	192	5
TAP	60	192	6
TAP	60	240	6
TAP	60	288	6
TAP	60	288	7
TAP	60	336	7
TAP	61	0	1
TAP	61	24	0
TAP	61	48	1
TAP	61	72	0
TAP	61	96	2
TAP	61	120	7
TAP	61	144	3
TAP	61	168	6
TAP	61	192	4
TAP	61	216	5
TAP	61	240	4
TAP	61	264	5
TAP	61	288	3
TAP	61	312	6
TAP	61	336	2
TAP	61	360	7
XTP	62	0	1
XTP	62	12	2
XTP	62	24	3
XTP	62	36	4
XTP	62	48	5
XTP	62	60	6
XTP	62	72	7
XTP	62	84	0
XTP	62	96	1
XTP	62	108	2
XTP	62	120	3
XTP	62	132	4
XTP	62	144	5
XTP	62	156	6
XTP	62	168	7
XTP	62	180	0
XTP	62	192	1
XTP	62	204	2
XTP	62	216	3
XTP	62	228	4
XTP	62	240	5
XTP	62	252	6
XTP	62	264	7
XTP	62	276	0
XTP	62	288	1
XTP	62	300	2
XTP	62	312	3
XTP	62	324	4
XTP	62	336	5
XTP	62	348	6
XTP	62	360	7
XTP	62	372	0
THO	63	0	0	288	C	0	M1
BRK	63	0	1
XTP	64	0	1
XTP	64	0	3
XTP	64	72	4
XTP	64	72	6
XTP	64	144	2
XTP	64	144	5
STR	64	192	0
SI_	64	192	0	96	48	4
TAP	64	216	7
TAP	64	240	1
TAP	64	264	6
BRK	64	288	0
XTP	65	0	6
XTP	65	0	7
TAP	65	48	6
TAP	65	72	4
TAP	65	96	5
TAP	65	120	3
TAP	65	144	4
TAP	65	168	2
TAP	65	216	1
TAP	65	216	4
TAP	65	264	3
TAP	65	264	5
TAP	65	312	1
TAP	65	312	4
TAP	65	360	3
TAP	65	360	6
HLD	66	0	6	48
TAP	66	48	0
TAP	66	72	6
TAP	66	96	1
TAP	66	120	7
TAP	66	144	2
HLD	66	168	0	72
TAP	66	240	4
BRK	66	288	2
BRK	66	288	6
TAP	67	0	0
HLD	67	0	1	48
TAP	67	48	2
TAP	67	72	1
TAP	67	96	4
TAP	67	120	3
TAP	67	144	6
TAP	67	168	5
HLD	67	192	6	48
TAP	67	240	5
TAP	67	264	6
TAP	67	288	3
TAP	67	312	4
TAP	67	336	1
TAP	67	360	2
TAP	68	0	0
TAP	68	48	1
TAP	68	48	7
TAP	68	96	2
TAP	68	120	4
TAP	68	144	3
HLD	68	168	5	72
TAP	68	216	7
TAP	68	240	7
TAP	68	288	0
TAP	68	312	7
HLD	68	336	0	48
TAP	69	0	2
TAP	69	24	1
TAP	69	48	7
TAP	69	72	0
TAP	69	96	4
TAP	69	120	3
TAP	69	144	6
TAP	69	168	5
HLD	69	192	7	144
TAP	69	240	5
TAP	69	264	5
TAP	69	312	2
TAP	69	336	2
TAP	70	0	0
TAP	70	0	7
TAP	70	48	2
TAP	70	48	5
STR	70	96	7
SF_	70	96	7	96	48	3
TAP	70	120	0
TAP	70	144	6
TAP	70	168	1
TAP	70	192	7
BRK	70	288	1
BRK	70	288	5
TAP	71	0	0
XTP	71	0	6
TTP	71	8	6	E	0	M1
TTP	71	16	5	B	0	M1
TTP	71	24	4	B	0	M1
TTP	71	32	4	E	0	M1
TAP	71	48	1
HLD	71	72	1	48
TAP	71	120	0
TAP	71	168	0
XTP	71	192	1
TTP	71	200	2	E	0	M1
TTP	71	208	2	B	0	M1
TTP	71	216	3	B	0	M1
TTP	71	224	4	E	0	M1
TAP	71	240	6
HLD	71	264	6	48
TAP	71	312	7
XTP	72	0	0
XTP	72	0	5
XTP	72	24	0
XTP	72	24	5
XTP	72	72	3
XTP	72	72	6
XTP	72	120	1
XTP	72	120	4
XTP	72	168	0
XTP	72	168	7
BRK	72	192	1
BRK	72	192	6
TTP	72	288	0	B	0	M1
TTP	72	288	0	C	1	M1
TTP	72	288	2	B	0	M1
TTP	72	288	4	B	0	M1
TTP	72	288	6	B	0	M1
XST	73	0	7
SI_	73	0	7	96	24	3
XST	73	72	1
SI_	73	72	1	96	24	5
XTP	73	72	7
XTP	73	144	1
XHO	73	144	6	96
TAP	73	240	7
BRK	73	288	0
BRK	73	288	5
XST	74	0	0
SI_	74	0	0	96	24	4
XTP	74	72	0
XST	74	72	6
SI_	74	72	6	96	24	2
XHO	74	144	1	96
XTP	74	144	6
TAP	74	240	0
BRK	74	288	2
BRK	74	288	7
XST	75	0	4
SI_	75	0	4	96	24	0
XST	75	72	2
SI_	75	72	2	96	24	6
XTP	75	72	4
XTP	75	144	2
XHO	75	144	7	96
TAP	75	240	0
BRK	75	288	1
BRK	75	288	6
XST	76	0	7
SI_	76	0	7	96	24	3
XST	76	72	0
SI_	76	72	0	96	24	4
XTP	76	72	7
XTP	76	144	0
XTP	76	144	5
TAP	76	192	6
TAP	76	240	3
TAP	76	240	4
TTP	76	288	0	C	1	M1
TTP	76	288	2	E	0	M1
TTP	76	288	6	E	0	M1
XST	77	0	0
SI_	77	0	0	96	48	4
XST	77	0	7
SI_	77	0	7	96	48	3
TAP	77	48	1
TAP	77	48	6
BRK	77	96	0
BRK	77	96	7
TAP	77	192	0
TAP	77	192	7
TAP	77	240	2
TAP	77	240	5
TAP	77	288	3
TAP	77	312	4
TAP	77	336	3
TAP	78	0	4
TAP	78	0	6
TAP	78	48	5
TAP	78	96	1
TAP	78	96	3
TAP	78	120	1
TAP	78	120	3
HLD	78	168	0	72
HLD	78	168	7	72
TAP	78	288	7
TAP	78	312	0
TAP	78	336	7
XTP	79	0	1
XTP	79	0	3
TAP	79	24	1
TAP	79	24	3
XTP	79	72	4
XTP	79	72	6
TAP	79	96	4
TAP	79	96	6
XST	79	144	0
SI_	79	144	0	96	48	3
XTP	79	144	1
TAP	79	168	0
STR	79	168	1
SI_	79	168	1	96	48	5
TAP	79	240	0
TTP	79	288	0	C	1	M1
XTP	80	0	4
XTP	80	0	6
TAP	80	24	4
TAP	80	24	6
XTP	80	72	1
XTP	80	72	3
TAP	80	96	1
TAP	80	96	3
XTP	80	144	6
XST	80	144	7
SI_	80	144	7	96	48	4
STR	80	168	6
SI_	80	168	6	96	48	2
TAP	80	168	7
TAP	80	240	7
TTP	80	288	0	C	1	M1
XST	81	0	2
SCR	81	0	2	96	192	0
XHO	81	0	7	576
TAP	82	0	2
TAP	82	96	1
TAP	82	192	0
BRK	82	288	1
BRK	82	288	6
TAP	83	0	3
TAP	83	0	4
TAP	83	48	3
TAP	83	48	4
TAP	83	96	2
TAP	83	96	5
STR	83	192	4
SI_	83	192	4	96	48	0
TAP	83	192	5
TAP	83	288	4
STR	83	288	7
SSR	83	288	7	96	96	3
HLD	84	0	1	24
HLD	84	48	1	24
HLD	84	96	1	24
TAP	84	144	1
TAP	84	192	1
TAP	84	192	2
TAP	84	240	2
TAP	84	240	3
TAP	84	288	3
TAP	84	288	4
TAP	84	336	4
TAP	84	336	5
STR	85	0	1
SSR	85	0	1	96	96	5
HLD	85	0	7	24
HLD	85	48	7	24
HLD	85	96	7	24
HLD	85	144	7	24
TAP	85	192	7
TAP	85	288	3
TAP	85	288	6
TTP	86	0	1	B	0	M1
TTP	86	0	2	B	0	M1
TTP	86	48	5	B	0	M1
TTP	86	48	6	B	0	M1
TTP	86	96	1	E	0	M1
TTP	86	120	7	E	0	M1
TTP	86	144	3	E	0	M1
TTP	86	168	5	E	0	M1
TTP	86	192	0	C	0	M1
TAP	86	288	0
TAP	86	288	7
TAP	86	312	6
TAP	86	336	5
TAP	86	360	4
STR	87	0	2
SI_	87	0	2	96	48	0
TAP	87	0	3
TAP	87	48	4
TAP	87	96	2
TAP	87	120	3
TAP	87	168	3
STR	87	192	2
SI_	87	192	2	96	48	0
TAP	87	240	5
TAP	87	288	2
TAP	87	312	3
TAP	87	360	3
STR	88	0	2
SI_	88	0	2	96	48	0
TAP	88	48	6
TAP	88	96	2
TAP	88	120	3
TAP	88	168	3
TAP	88	192	0
TAP	88	240	1
TAP	88	240	4
BRK	88	288	6
BRK	88	288	7
XST	89	0	0
SV_	89	0	0	96	48	3
XST	89	0	4
SV_	89	0	4	96	48	7
XST	89	96	0
SCL	89	96	0	96	480	0
SCR	89	96	0	96	480	0
XTP	89	96	4
TTP	89	97	0	C	1	M1
TTP	91	0	0	C	1	M1
TTP	91	0	1	B	0	M1
TTP	91	0	3	B	0	M1
TTP	91	0	5	B	0	M1
TTP	91	0	7	B	0	M1

T_REC_TAP	507
T_REC_BRK	42
T_REC_XTP	119
T_REC_HLD	53
T_REC_XHO	4
T_REC_STR	26
T_REC_BST	2
T_REC_XST	21
T_REC_TTP	91
T_REC_THO	2
T_REC_SLD	51
T_REC_ALL	918
T_NUM_TAP	764
T_NUM_BRK	44
T_NUM_HLD	59
T_NUM_SLD	51
T_NUM_ALL	918
T_JUDGE_TAP	808
T_JUDGE_HLD	159
T_JUDGE_SLD	51
T_JUDGE_ALL	1018
TTM_EACHPAIRS	178
TTM_SCR_TAP	382000
TTM_SCR_BRK	114400
TTM_SCR_HLD	59000
TTM_SCR_SLD	76500
TTM_SCR_ALL	631900
TTM_SCR_S	608700
TTM_SCR_SS	627500
TTM_RAT_ACV	10070

