VERSION	0.00.00	1.03.00
FES_MODE	0
BPM_DEF	160.000	160.000	160.000	160.000
MET_DEF	4	4
RESOLUTION	384
CLK_DEF	384
COMPATIBLE_CODE	MA2

BPM	0	0	160.000
MET	0	0	4	4

HLD	1	0	1	72
HLD	1	72	3	72
HLD	1	144	2	72
TAP	1	216	3
XTP	1	288	1
XTP	1	288	4
HLD	2	0	6	72
HLD	2	72	4	72
HLD	2	144	5	72
TAP	2	216	4
XTP	2	288	3
XTP	2	288	6
HLD	3	0	2	72
HLD	3	72	4	72
HLD	3	144	3	72
TAP	3	216	4
XTP	3	288	3
XTP	3	288	4
XTP	3	336	2
XTP	3	336	5
XTP	4	0	2
XTP	4	0	5
TTP	4	96	0	C	1	M1
TTP	4	96	1	B	0	M1
TTP	4	96	6	B	0	M1
HLD	5	0	1	384
TAP	5	192	2
HLD	6	0	3	384
TAP	6	192	4
HLD	7	0	4	384
TAP	7	192	5
HLD	8	0	6	192
TAP	8	192	4
TAP	9	0	2
TAP	9	96	4
TAP	9	192	3
TAP	9	192	5
TAP	9	288	6
TAP	10	0	5
TAP	10	96	3
TAP	10	192	2
TAP	10	192	4
TAP	10	288	1
TAP	11	0	2
TAP	11	0	3
TAP	11	96	3
TAP	11	96	4
TAP	11	192	4
TAP	11	192	5
TAP	11	288	3
STR	11	288	6
SCL	11	288	6	96	192	3
TAP	12	0	2
TAP	12	288	1
TAP	12	288	6
TAP	13	0	2
TAP	13	0	3
TAP	13	96	3
TAP	13	96	4
TAP	13	192	5
TAP	13	240	4
TAP	13	288	5
TAP	14	0	4
TAP	14	0	5
TAP	14	96	3
TAP	14	96	4
TAP	14	192	2
TAP	14	240	3
TAP	14	288	2
HLD	15	0	1	96
HLD	15	0	4	96
HLD	15	192	3	96
HLD	15	192	6	96
TAP	16	0	2
TAP	16	0	5
STR	16	96	3
SI_	16	96	3	96	96	0
STR	16	96	4
SI_	16	96	4	96	96	7
XTP	17	0	1
TAP	17	48	1
TAP	17	96	4
TAP	17	144	4
TAP	17	192	2
TAP	17	240	2
TAP	17	288	5
TAP	17	336	5
TAP	18	0	3
TAP	18	48	3
TAP	18	96	6
TAP	18	144	6
TAP	18	192	2
TAP	18	240	2
TAP	18	288	5
TAP	18	336	5
XTP	19	0	1
TAP	19	48	1
XTP	19	96	6
TAP	19	144	6
XTP	19	192	0
TAP	19	216	7
TAP	19	240	0
TAP	19	264	7
XTP	19	288	0
TAP	19	312	7
TAP	19	336	0
TAP	19	360	7
XST	20	0	0
SF_	20	0	0	96	96	4
BRK	20	288	1
BRK	20	288	6
HLD	21	0	2	96
HLD	21	0	5	96
TAP	21	144	2
TAP	21	144	5
TAP	21	192	2
TAP	21	192	5
STR	21	288	2
SCL	21	288	2	96	192	5
TAP	21	288	3
HLD	22	0	4	192
STR	22	288	3
SCL	22	288	3	96	192	6
TAP	22	288	6
HLD	23	0	5	192
STR	23	288	0
SSL	23	288	0	96	192	4
TAP	23	288	7
HLD	24	0	6	192
BRK	24	288	1
BRK	24	288	5
HLD	25	0	2	192
TAP	25	0	3
TAP	25	96	4
TAP	25	192	3
TAP	25	288	3
TAP	25	288	6
TAP	26	0	4
HLD	26	0	5	192
TAP	26	96	3
TAP	26	192	4
TAP	26	288	1
TAP	26	288	4
TAP	27	0	2
TAP	27	48	2
TAP	27	96	4
TAP	27	192	5
TAP	27	240	5
TAP	27	288	3
TAP	28	0	2
TAP	28	0	4
TAP	28	96	3
TAP	28	96	5
TAP	28	192	3
TAP	28	192	4
XTP	28	288	0
TAP	29	0	1
TAP	29	0	7
STR	29	96	0
SCR	29	96	0	96	96	3
TAP	29	96	6
HLD	29	192	5	96
STR	30	0	4
SUL	30	0	4	96	96	0
HLD	30	0	6	96
TAP	30	192	5
TAP	30	240	5
TAP	30	288	0
TAP	31	0	0
TAP	31	0	6
TAP	31	96	1
STR	31	96	7
SCL	31	96	7	96	96	4
HLD	31	192	2	96
HLD	32	0	1	96
STR	32	0	3
SUR	32	0	3	96	96	7
TAP	32	192	2
XTP	32	288	0
XTP	32	288	6
TAP	33	0	2
TAP	33	0	3
TAP	33	96	4
STR	33	96	5
SCR	33	96	5	96	96	0
HLD	33	192	3	96
TAP	34	0	1
TAP	34	0	3
TAP	34	96	3
TAP	34	96	5
BRK	34	192	7
BRK	34	240	7
BRK	34	288	7
BRK	34	336	7
XHO	35	0	1	72
XHO	35	72	2	72
XHO	35	144	3	72
XTP	35	216	4
XST	35	288	1
SLR	35	288	1	96	192	0
XST	35	288	6
SLL	35	288	6	96	192	7
XTP	36	288	1
XTP	36	288	6
TAP	37	0	3
TAP	37	0	4
TTP	37	96	0	B	0	M1
TTP	37	96	7	E	0	M1
TTP	37	96	7	B	0	M1
TTP	37	192	3	E	0	M1
TTP	37	192	3	B	0	M1
TTP	37	192	4	B	0	M1
TAP	37	288	1
TAP	37	288	6
TAP	38	0	0
TAP	38	0	7
TTP	38	96	4	B	0	M1
TTP	38	96	5	B	0	M1
TTP	38	96	6	E	0	M1
TTP	38	192	2	B	0	M1
TTP	38	192	2	E	0	M1
TTP	38	192	3	B	0	M1
TAP	38	288	6
TAP	38	288	7
XTP	39	0	0
HLD	39	0	5	72
HLD	39	72	4	72
HLD	39	144	3	72
XTP	39	216	2
XTP	39	288	1
XTP	39	288	4
HLD	40	0	2	72
HLD	40	72	3	72
TAP	40	144	4
TAP	40	192	4
TAP	40	192	5
XTP	40	288	6
TAP	41	0	2
TAP	41	0	3
TTP	41	96	0	E	0	M1
TTP	41	96	6	B	0	M1
TTP	41	96	7	B	0	M1
TTP	41	192	2	B	0	M1
TTP	41	192	3	B	0	M1
TTP	41	192	4	E	0	M1
TAP	41	288	6
TAP	41	288	7
TAP	42	0	4
TAP	42	0	5
TTP	42	96	0	B	0	M1
TTP	42	96	0	E	0	M1
TTP	42	96	1	B	0	M1
TTP	42	192	4	E	0	M1
TTP	42	192	4	B	0	M1
TTP	42	192	5	B	0	M1
XTP	42	288	0
XTP	42	288	1
HLD	43	0	2	72
TAP	43	0	7
HLD	43	72	3	72
HLD	43	144	4	72
HLD	43	216	5	72
XTP	43	288	7
HLD	44	0	6	72
HLD	44	72	5	72
TAP	44	144	4
TAP	44	192	3
TAP	44	192	4
BRK	44	288	1
BRK	44	288	5
TAP	45	0	2
TAP	45	48	2
TAP	45	96	4
TAP	45	144	3
TAP	45	192	5
TAP	45	288	1
TAP	45	288	6
TAP	46	0	3
TAP	46	0	4
TAP	46	48	3
TAP	46	48	4
TAP	46	96	3
TAP	46	96	4
TAP	46	144	3
TAP	46	144	4
XTP	46	192	3
XTP	46	192	4
BST	46	288	1
SCR	46	288	1	96	576	6
BRK	46	288	6
THO	47	0	0	576	C	0	M1
TTP	49	0	7	E	0	M1
TTP	49	192	3	E	0	M1
TTP	49	192	5	E	0	M1
TTP	50	0	1	E	0	M1
TTP	50	192	3	E	0	M1
TTP	50	192	5	E	0	M1
TTP	51	0	7	E	0	M1
TTP	51	96	6	E	0	M1
TTP	51	192	3	B	0	M1
TTP	51	192	5	E	0	M1
TTP	52	0	1	E	0	M1
TTP	52	96	2	E	0	M1
TTP	52	192	3	E	0	M1
TTP	52	192	4	B	0	M1
TTP	53	0	7	E	0	M1
TTP	53	96	6	E	0	M1
TTP	53	192	5	E	0	M1
TTP	53	288	4	E	0	M1
TTP	54	0	3	E	0	M1
TTP	54	96	2	E	0	M1
TTP	54	192	1	E	0	M1
TTP	54	192	7	E	0	M1
THO	55	0	0	384	C	0	M1
TTP	55	0	1	B	0	M1
TTP	55	0	2	B	0	M1
TTP	55	0	5	B	0	M1
TTP	55	0	6	B	0	M1
HLD	57	0	1	96
HLD	57	96	2	96
HLD	57	192	3	96
HLD	57	288	4	96
HLD	58	0	5	96
HLD	58	96	6	96
TAP	58	192	7
TAP	58	288	0
TAP	58	288	7
TAP	59	0	2
TAP	59	48	2
TAP	59	96	4
TAP	59	144	4
TAP	59	192	3
TAP	59	240	3
TAP	59	288	6
TAP	59	336	6
TAP	60	0	3
TAP	60	48	3
TAP	60	96	5
TAP	60	144	5
TAP	60	192	2
TAP	60	240	2
TAP	60	288	4
TAP	60	336	4
XTP	61	0	3
XTP	61	0	4
TAP	61	48	3
TAP	61	48	4
XTP	61	96	2
XTP	61	96	5
TAP	61	144	2
TAP	61	144	5
XTP	61	192	1
XTP	61	192	6
TAP	61	240	1
TAP	61	240	6
XTP	61	288	0
XTP	61	288	7
TAP	61	336	0
TAP	61	336	7
XTP	62	0	0
TAP	62	24	7
TAP	62	48	0
TAP	62	72	7
XTP	62	96	0
TAP	62	120	7
TAP	62	144	0
TAP	62	168	7
XTP	62	192	0
TAP	62	216	7
XTP	62	240	0
TAP	62	264	7
XST	62	288	0
SCR	62	288	0	96	288	7
TAP	62	312	7
XTP	62	336	0
TAP	62	360	7
XTP	64	0	1
XTP	64	0	6
XTP	64	72	4
XTP	64	72	5
XTP	64	144	2
XTP	64	144	3
XTP	64	192	2
XTP	64	192	3
BRK	64	288	0
BRK	64	288	7
STR	65	0	6
SI_	65	0	6	96	48	3
TAP	65	48	6
STR	65	96	2
SI_	65	96	2	96	48	7
TAP	65	144	2
TAP	65	192	4
TAP	65	240	5
TAP	65	288	0
TAP	65	288	6
STR	66	0	1
SI_	66	0	1	96	48	4
TAP	66	48	1
STR	66	96	5
SI_	66	96	5	96	48	0
TAP	66	144	5
TAP	66	192	3
TAP	66	240	2
TAP	66	288	1
TAP	66	288	7
TAP	67	0	3
TAP	67	0	5
TAP	67	48	4
TAP	67	96	5
TAP	67	144	7
TAP	67	192	2
TAP	67	192	4
TAP	67	240	3
TAP	67	288	2
TAP	67	336	0
STR	68	0	7
SI_	68	0	7	96	48	3
STR	68	96	2
SCL	68	96	2	96	96	5
BRK	68	192	4
TAP	69	0	6
STR	69	48	6
SCL	69	48	6	96	48	3
TAP	69	96	0
TAP	69	144	1
TAP	69	192	2
STR	69	240	2
SCL	69	240	2	96	48	7
TAP	69	288	4
TAP	69	336	5
XTP	70	0	6
TAP	70	96	4
TAP	70	96	5
TAP	70	144	3
TAP	70	144	6
TAP	70	192	2
TAP	70	192	7
BRK	70	288	0
BRK	70	288	4
XHO	71	0	6	96
XST	71	0	7
SI_	71	0	7	96	48	3
XST	71	192	0
SI_	71	192	0	96	48	5
XHO	71	192	1	96
XST	72	0	6
SCL	72	0	6	96	48	3
XST	72	0	7
SCR	72	0	7	96	48	2
TTP	72	192	0	C	1	M1
HLD	73	0	6	48
HLD	73	0	7	48
HLD	73	72	0	48
HLD	73	72	5	48
STR	73	144	1
SI_	73	144	1	96	48	4
TAP	73	144	4
TAP	73	240	6
TAP	73	288	6
HLD	74	0	4	48
HLD	74	0	5	48
HLD	74	72	3	48
HLD	74	72	6	48
TAP	74	144	2
STR	74	144	7
SI_	74	144	7	96	48	4
TAP	74	240	0
TAP	74	288	0
HLD	75	0	0	48
HLD	75	0	1	48
HLD	75	72	2	48
HLD	75	72	7	48
TAP	75	144	3
STR	75	144	6
SI_	75	144	6	96	48	2
TAP	75	240	0
TAP	75	288	0
HLD	76	0	6	48
HLD	76	0	7	48
HLD	76	72	0	48
HLD	76	72	5	48
STR	76	144	1
SCR	76	144	1	96	48	4
TAP	76	144	4
XTP	76	240	7
BRK	76	288	7
TAP	77	0	1
TAP	77	48	1
TAP	77	96	3
TAP	77	144	4
TAP	77	192	6
TAP	77	240	6
TAP	77	288	4
TAP	77	336	3
STR	78	0	1
SI_	78	0	1	96	48	4
TAP	78	48	1
STR	78	96	7
SI_	78	96	7	96	48	3
TAP	78	144	7
TAP	78	192	0
BRK	78	288	1
BRK	78	288	4
TAP	79	0	2
TAP	79	24	3
TAP	79	72	3
TAP	79	96	1
TAP	79	144	5
TAP	79	168	4
TAP	79	216	4
TAP	79	240	6
XTP	79	288	0
XTP	79	288	6
TAP	80	0	1
TAP	80	24	0
TAP	80	72	0
TAP	80	96	2
TAP	80	144	6
TAP	80	168	7
TAP	80	216	7
TAP	80	240	5
BRK	80	288	0
BRK	80	288	5
TTP	81	0	0	C	1	M1
TTP	81	0	2	B	0	M1
TTP	81	0	6	B	0	M1
XTP	82	0	2
HLD	82	0	4	192
XTP	82	96	1
XHO	82	192	0	96
BRK	82	288	7
STR	83	0	0
SI_	83	0	0	96	48	4
STR	83	0	6
SI_	83	0	6	96	48	3
XTP	83	192	1
XTP	83	192	5
TAP	83	288	3
TAP	83	288	4
HLD	84	0	4	96
STR	84	0	5
SI_	84	0	5	96	48	7
HLD	84	192	4	96
STR	84	192	5
SI_	84	192	5	96	48	0
STR	85	0	2
SI_	85	0	2	96	48	0
HLD	85	0	3	96
STR	85	192	2
SI_	85	192	2	96	48	7
HLD	85	192	3	96
STR	86	0	4
SI_	86	0	4	96	48	0
STR	86	0	5
SI_	86	0	5	96	48	0
XTP	86	192	7
BRK	86	288	0
BRK	86	288	6
TAP	87	0	2
TAP	87	48	2
TAP	87	96	4
TAP	87	144	4
TAP	87	192	1
TAP	87	240	1
TAP	87	288	0
TAP	87	288	1
TAP	88	0	6
TAP	88	48	6
TAP	88	96	0
TAP	88	144	0
TAP	88	192	5
TAP	88	240	5
TAP	88	288	4
TAP	88	288	5
TAP	89	0	3
TAP	89	0	4
TTP	89	96	0	C	1	M1
TTP	89	96	1	B	0	M1
TTP	89	96	6	B	0	M1
XST	90	0	0
SCR	90	0	0	96	192	7
BRK	91	0	3
BRK	91	0	4

T_REC_TAP	276
T_REC_BRK	26
T_REC_XTP	61
T_REC_HLD	67
T_REC_XHO	6
T_REC_STR	33
T_REC_BST	1
T_REC_XST	9
T_REC_TTP	60
T_REC_THO	2
T_REC_SLD	43
T_REC_ALL	584
T_NUM_TAP	439
T_NUM_BRK	27
T_NUM_HLD	75
T_NUM_SLD	43
T_NUM_ALL	584
T_JUDGE_TAP	466
T_JUDGE_HLD	182
T_JUDGE_SLD	43
T_JUDGE_ALL	691
TTM_EACHPAIRS	123
TTM_SCR_TAP	219500
TTM_SCR_BRK	70200
TTM_SCR_HLD	75000
TTM_SCR_SLD	64500
TTM_SCR_ALL	429200
TTM_SCR_S	413750
TTM_SCR_SS	426500
TTM_RAT_ACV	10063

