VERSION	0.00.00	1.03.00
FES_MODE	0
BPM_DEF	160.000	160.000	160.000	160.000
MET_DEF	4	4
RESOLUTION	384
CLK_DEF	384
COMPATIBLE_CODE	MA2

BPM	0	0	160.000
MET	0	0	4	4

XHO	1	0	2	192
XHO	1	0	4	192
XHO	2	0	3	192
XHO	2	0	5	192
THO	3	0	0	480	C	1	L1
TTP	5	0	0	E	0	L1
TTP	5	192	7	B	0	L1
TTP	6	0	6	B	0	L1
TTP	6	192	6	E	0	L1
TTP	7	0	5	B	0	L1
TTP	7	192	4	B	0	L1
THO	8	0	0	192	C	0	L1
TTP	9	0	1	E	0	L1
TTP	9	192	0	C	0	L1
TTP	10	0	5	E	0	L1
TTP	10	192	6	E	0	L1
TTP	11	0	7	E	0	L1
TTP	11	192	0	E	0	L1
THO	12	0	0	192	C	0	L1
TTP	13	0	6	B	0	L1
TTP	13	96	0	C	0	L1
TTP	13	192	2	B	0	L1
TTP	14	0	1	B	0	L1
TTP	14	96	0	C	0	L1
TTP	14	192	5	B	0	L1
TTP	15	0	4	B	0	L1
TTP	15	96	3	B	0	L1
TTP	15	192	2	B	0	L1
TTP	15	192	5	B	0	L1
THO	16	0	0	192	C	0	L1
TTP	17	0	7	E	0	L1
TTP	17	96	0	C	0	L1
TTP	17	192	3	E	0	L1
TTP	17	288	2	E	0	L1
TTP	18	0	1	E	0	L1
TTP	18	96	0	C	0	L1
TTP	18	192	5	E	0	L1
TTP	19	0	5	B	0	L1
TTP	19	96	4	B	0	L1
TTP	19	192	3	B	0	L1
TTP	19	288	2	B	0	L1
THO	20	0	0	192	C	1	L1
XHO	21	0	0	192
TAP	21	192	7
HLD	22	0	6	192
TAP	22	192	4
HLD	23	0	1	192
TAP	23	192	3
HLD	24	0	3	96
HLD	24	0	4	96
TAP	24	192	2
TAP	24	192	5
TAP	25	0	1
TAP	25	96	1
TAP	25	192	2
TAP	25	288	3
TAP	26	0	4
TAP	26	96	5
TAP	26	192	4
TAP	26	192	5
HLD	27	0	3	192
HLD	27	192	4	192
TAP	28	0	3
TAP	28	96	3
XTP	28	192	3
XTP	28	192	4
HLD	29	0	2	96
HLD	29	0	3	96
TAP	29	192	2
TAP	29	192	3
HLD	30	0	4	96
HLD	30	0	5	96
TAP	30	192	4
TAP	30	192	5
HLD	31	0	1	96
HLD	31	0	3	96
TAP	31	192	1
TAP	31	192	3
TAP	32	0	0
TAP	32	96	0
XTP	32	192	0
XTP	32	192	7
HLD	33	0	4	96
HLD	33	0	6	96
TAP	33	192	4
TAP	33	192	6
HLD	34	0	2	96
HLD	34	0	3	96
XTP	34	192	1
XTP	34	192	4
TAP	35	0	3
TAP	35	96	3
TAP	35	192	4
TAP	35	288	4
HLD	36	0	3	96
HLD	36	0	4	96
XTP	36	192	2
XTP	36	192	5
STR	37	0	1
SI_	37	0	1	96	288	5
TAP	38	192	6
TAP	38	288	6
STR	39	0	7
SI_	39	0	7	96	288	3
XTP	40	192	2
XTP	40	192	4
STR	41	0	1
SCR	41	0	1	96	288	4
TAP	42	192	3
TAP	42	192	5
STR	43	0	5
SCR	43	0	5	96	288	0
TAP	44	192	1
STR	45	0	0
SI_	45	0	0	96	288	4
STR	45	0	7
SI_	45	0	7	96	288	3
XTP	46	192	2
XTP	46	192	5
TTP	47	0	2	E	0	L1
TTP	47	192	2	B	0	L1
TTP	48	0	3	B	0	L1
TTP	48	192	4	E	0	L1
TTP	49	0	4	B	0	L1
TTP	49	0	5	B	0	L1
TTP	49	192	2	B	0	L1
TTP	49	192	3	B	0	L1
THO	50	0	0	192	C	0	L1
TTP	51	0	6	B	0	L1
TTP	51	0	7	E	0	L1
TTP	51	192	1	B	0	L1
TTP	51	192	2	B	0	L1
TTP	52	0	5	B	0	L1
TTP	52	0	5	E	0	L1
TTP	52	192	4	E	0	L1
TTP	53	0	2	B	0	L1
TTP	53	0	3	E	0	L1
TTP	53	192	5	B	0	L1
TTP	53	192	6	B	0	L1
THO	54	0	0	384	C	1	L1
TAP	57	0	2
TAP	57	96	2
TAP	57	192	2
TAP	57	192	3
TAP	58	0	5
TAP	58	96	5
TAP	58	192	4
TAP	58	192	5
TAP	59	0	2
TAP	59	96	2
TAP	59	192	1
TAP	59	192	3
TAP	60	0	5
TAP	60	96	5
TAP	60	192	4
TAP	60	192	6
STR	61	0	1
SLR	61	0	1	96	288	0
STR	61	0	6
SLL	61	0	6	96	288	7
TAP	62	192	1
TAP	62	192	6
STR	63	0	0
SXL	63	0	0	96	336	3
STR	63	0	7
SXR	63	0	7	96	336	4
XTP	64	192	1
XTP	64	192	6
BRK	64	288	1
BRK	64	288	6
TAP	65	0	2
TAP	65	96	1
TAP	65	96	3
TAP	65	192	5
TAP	65	288	4
TAP	65	288	6
TAP	66	0	7
TAP	66	48	7
TAP	66	96	7
TAP	66	192	0
TAP	66	192	6
TAP	67	0	5
TAP	67	96	4
TAP	67	96	6
TAP	67	192	2
TAP	67	288	1
TAP	67	288	3
TAP	68	0	0
TAP	68	48	0
TAP	68	96	0
XTP	68	192	1
XTP	68	192	7
TAP	69	0	6
TAP	69	96	5
TAP	69	96	7
TAP	69	192	1
TAP	69	288	0
TAP	69	288	2
TAP	70	0	3
TAP	70	48	3
TAP	70	96	3
XTP	70	192	2
XTP	70	192	4
XHO	71	0	1	96
XHO	71	0	3	96
XHO	71	192	4	96
XHO	71	192	6	96
TAP	72	0	0
TAP	72	0	1
TAP	72	96	2
TAP	72	96	7
BRK	72	192	3
BRK	72	192	6
XTP	73	0	0
XTP	73	0	7
TAP	73	96	6
TAP	73	192	5
TAP	73	288	4
TAP	73	288	5
TAP	74	0	3
TAP	74	0	4
TAP	74	96	2
TAP	74	192	1
TAP	74	240	1
TAP	74	288	1
TAP	75	0	0
TAP	75	0	7
TAP	75	96	6
TAP	75	192	5
TAP	75	288	4
TAP	75	288	5
TAP	76	0	3
TAP	76	48	3
TAP	76	96	3
XTP	76	192	2
XTP	76	192	5
TAP	77	0	4
TAP	77	48	4
TAP	77	96	4
TAP	77	192	2
TAP	77	240	2
TAP	77	288	2
TAP	78	0	1
TAP	78	0	3
TAP	78	96	0
TAP	78	96	7
XTP	78	192	1
XTP	78	192	6
XST	79	0	6
SI_	79	0	6	96	144	3
XST	79	0	7
SI_	79	0	7	96	144	2
XST	80	0	0
SI_	80	0	0	96	144	5
XST	80	0	1
SI_	80	0	1	96	144	4
BRK	81	0	7
XTP	82	0	2
XTP	82	96	1
XTP	82	192	0
BRK	82	288	0
BRK	82	288	7
HLD	83	0	1	96
HLD	83	0	6	96
TAP	83	192	1
TAP	83	192	6
HLD	84	0	2	192
TAP	84	96	3
TAP	84	192	4
HLD	85	0	5	192
TAP	85	96	4
TAP	85	192	3
HLD	86	0	2	96
HLD	86	0	4	96
BRK	86	192	0
BRK	86	192	6
TAP	87	0	1
TAP	87	0	3
TAP	87	96	1
TAP	87	96	3
TAP	87	192	2
TAP	87	288	3
TAP	88	0	3
TAP	88	0	4
TAP	88	96	3
TAP	88	96	4
TAP	88	192	4
HLD	88	288	3	96
HLD	88	288	5	96
THO	89	96	0	672	C	1	L1

T_REC_TAP	131
T_REC_BRK	9
T_REC_XTP	27
T_REC_HLD	26
T_REC_XHO	9
T_REC_STR	10
T_REC_BST	0
T_REC_XST	4
T_REC_TTP	52
T_REC_THO	8
T_REC_SLD	14
T_REC_ALL	290
T_NUM_TAP	224
T_NUM_BRK	9
T_NUM_HLD	43
T_NUM_SLD	14
T_NUM_ALL	290
T_JUDGE_TAP	233
T_JUDGE_HLD	144
T_JUDGE_SLD	14
T_JUDGE_ALL	391
TTM_EACHPAIRS	67
TTM_SCR_TAP	112000
TTM_SCR_BRK	23400
TTM_SCR_HLD	43000
TTM_SCR_SLD	21000
TTM_SCR_ALL	199400
TTM_SCR_S	192550
TTM_SCR_SS	198500
TTM_RAT_ACV	10045

