VERSION	0.00.00	1.03.00
FES_MODE	0
BPM_DEF	160.000	160.000	160.000	160.000
MET_DEF	4	4
RESOLUTION	384
CLK_DEF	384
COMPATIBLE_CODE	MA2

BPM	0	0	160.000
MET	0	0	4	4

HLD	1	0	0	288
HLD	2	0	7	288
HLD	3	0	0	288
HLD	4	0	0	288
HLD	4	0	7	288
TAP	5	0	0
TAP	6	0	1
TAP	7	0	2
TAP	8	0	3
TAP	9	0	4
TAP	9	192	4
TAP	10	0	5
TAP	10	192	5
TAP	11	0	6
TAP	11	192	6
TAP	12	0	0
TAP	12	0	7
TAP	13	0	0
TAP	13	96	0
TAP	13	192	0
TAP	14	0	7
TAP	14	96	7
TAP	14	192	7
TAP	15	0	0
TAP	15	96	0
TAP	15	192	7
TAP	15	288	7
BRK	16	0	0
BRK	16	0	7
TAP	17	0	7
TAP	17	96	7
TAP	17	192	6
TAP	17	288	6
TAP	18	0	5
TAP	18	96	5
TAP	18	192	4
TAP	18	288	4
TAP	19	0	3
TAP	19	96	3
TAP	19	192	2
TAP	19	288	2
TAP	20	0	1
TAP	20	96	1
TAP	20	192	0
BRK	20	288	0
STR	21	0	1
SI_	21	0	1	96	288	4
TAP	22	192	5
STR	23	0	5
SI_	23	0	5	96	288	0
TAP	24	192	2
STR	25	0	2
SI_	25	0	2	96	288	7
TAP	26	192	6
STR	27	0	6
SI_	27	0	6	96	288	3
TAP	29	0	2
TAP	29	192	2
TAP	30	0	1
TAP	30	192	1
TAP	31	0	0
TAP	31	192	0
HLD	32	0	0	192
HLD	32	0	7	192
BRK	32	288	0
BRK	32	288	7
TAP	33	0	6
TAP	33	192	6
TAP	34	0	5
XTP	34	192	5
TAP	35	0	4
TAP	35	192	4
HLD	36	0	3	192
HLD	36	0	4	192
TAP	37	0	5
TAP	37	96	5
TAP	37	192	5
TAP	38	0	6
TAP	38	96	6
TAP	38	192	6
TAP	39	0	7
TAP	39	96	7
TAP	39	192	7
TAP	40	0	0
TAP	40	96	0
TAP	40	192	0
TAP	40	192	7
TAP	41	0	1
TAP	41	96	1
TAP	41	192	1
TAP	42	0	2
TAP	42	96	2
TAP	42	192	2
TAP	43	0	3
TAP	43	96	3
TAP	43	192	3
TAP	44	0	4
TAP	44	96	4
TAP	44	192	3
TAP	44	192	4
HLD	45	0	3	192
HLD	45	0	4	192
TAP	46	0	3
TAP	46	0	4
TAP	46	96	3
TAP	46	96	4
XTP	46	192	2
XTP	46	192	5
TTP	47	0	3	B	0	L1
TTP	48	0	2	B	0	L1
TTP	49	0	1	B	0	L1
TTP	50	0	0	B	0	L1
TTP	51	0	7	B	0	L1
TTP	52	0	6	B	0	L1
TTP	53	0	5	B	0	L1
TTP	54	0	4	B	0	L1
TTP	55	0	2	B	0	L1
TTP	55	0	3	B	0	L1
TTP	56	0	4	B	0	L1
TTP	57	0	2	B	0	L1
TTP	58	0	5	B	0	L1
THO	59	0	0	1536	C	1	L1
HLD	64	0	0	192
HLD	64	0	7	192
BRK	64	288	0
BRK	64	288	7
TAP	65	0	1
TAP	65	96	1
TAP	65	192	0
TAP	65	192	1
TAP	66	0	2
TAP	66	96	2
TAP	66	192	2
TAP	66	192	3
TAP	67	0	4
TAP	67	96	4
TAP	67	192	3
TAP	67	288	3
TAP	68	0	4
TAP	68	96	3
TAP	68	192	4
TAP	69	0	5
TAP	69	96	5
TAP	69	192	4
TAP	69	192	5
TAP	70	0	6
TAP	70	96	6
TAP	70	192	6
TAP	70	192	7
HLD	71	0	0	96
HLD	71	192	7	96
TAP	72	0	0
TAP	72	0	7
TAP	72	96	0
TAP	72	96	7
BRK	72	192	1
BRK	72	192	6
STR	73	0	0
SI_	73	0	0	96	288	4
TAP	75	0	5
TAP	75	96	5
TAP	75	192	4
TAP	75	288	4
TAP	76	0	4
TAP	76	0	5
TAP	76	96	4
TAP	76	96	5
XTP	76	192	3
XTP	76	192	6
STR	77	0	7
SI_	77	0	7	96	288	3
XHO	79	0	2	288
XHO	79	0	4	288
XHO	80	0	3	288
XHO	80	0	5	288
XHO	81	0	3	288
XHO	81	0	4	288
TAP	82	0	3
TAP	82	0	4
TAP	82	96	3
TAP	82	96	4
TAP	82	192	3
TAP	82	192	4
BRK	82	288	2
BRK	82	288	5
HLD	83	0	1	192
HLD	84	0	0	192
HLD	85	0	7	192
HLD	86	0	6	192
TAP	87	0	5
TAP	87	96	5
TAP	87	192	5
TAP	88	0	4
TAP	88	96	4
TAP	88	192	4
STR	89	0	3
SI_	89	0	3	96	288	0
STR	89	0	4
SI_	89	0	4	96	288	7
BRK	91	0	1
BRK	91	0	6

T_REC_TAP	128
T_REC_BRK	13
T_REC_XTP	5
T_REC_HLD	19
T_REC_XHO	6
T_REC_STR	8
T_REC_BST	0
T_REC_XST	0
T_REC_TTP	13
T_REC_THO	1
T_REC_SLD	8
T_REC_ALL	201
T_NUM_TAP	154
T_NUM_BRK	13
T_NUM_HLD	26
T_NUM_SLD	8
T_NUM_ALL	201
T_JUDGE_TAP	167
T_JUDGE_HLD	150
T_JUDGE_SLD	8
T_JUDGE_ALL	325
TTM_EACHPAIRS	33
TTM_SCR_TAP	77000
TTM_SCR_BRK	33800
TTM_SCR_HLD	26000
TTM_SCR_SLD	12000
TTM_SCR_ALL	148800
TTM_SCR_S	143100
TTM_SCR_SS	147500
TTM_RAT_ACV	10088

