VERSION	0.00.00	1.03.00
FES_MODE	0
BPM_DEF	150.000	150.000	150.000	150.000
MET_DEF	4	4
RESOLUTION	384
CLK_DEF	384
COMPATIBLE_CODE	MA2

BPM	0	0	150.000
MET	0	0	4	4

TAP	1	336	3
TAP	1	336	4
XTP	2	0	2
XHO	2	0	5	144
TAP	2	96	4
HLD	2	144	3	192
TAP	2	240	4
TAP	2	288	5
HLD	2	336	6	192
TAP	3	48	7
TAP	3	96	0
HLD	3	144	1	240
TAP	3	240	2
TAP	3	288	3
TAP	3	336	4
HLD	4	0	5	96
TAP	4	48	4
HLD	4	96	3	96
TAP	4	144	4
HLD	4	192	5	144
TAP	4	240	4
TAP	4	288	3
HLD	4	336	2	192
TAP	5	48	3
TAP	5	96	4
TAP	5	144	5
TAP	5	240	3
TAP	5	240	4
BRK	5	288	1
BRK	5	288	6
TTP	6	0	3	B	0	M1
TTP	6	0	4	B	0	M1
STR	6	96	6
SCL	6	96	6	96	96	3
TTP	6	192	0	B	0	M1
TTP	6	192	7	B	0	M1
STR	6	288	1
SCR	6	288	1	96	96	4
TTP	7	0	5	B	0	M1
TTP	7	0	6	B	0	M1
STR	7	96	7
SCL	7	96	7	96	96	4
TTP	7	192	1	B	0	M1
TTP	7	192	2	B	0	M1
STR	7	288	0
SCR	7	288	0	96	336	7
TTP	8	0	0	E	0	M1
TTP	8	48	1	E	0	M1
TTP	8	96	2	E	0	M1
TTP	8	144	3	E	0	M1
TTP	8	192	4	E	0	M1
TTP	8	240	5	E	0	M1
TTP	8	288	6	E	0	M1
TTP	8	336	7	E	0	M1
TTP	9	0	0	C	1	M1
STR	9	192	0
SI_	9	192	0	96	48	4
STR	9	192	7
SI_	9	192	7	96	48	3
BRK	9	288	0
BRK	9	288	7
HLD	10	0	6	72
HLD	10	72	5	72
TAP	10	144	4
HLD	10	192	1	72
HLD	10	264	2	72
HLD	10	336	3	96
TAP	11	48	4
TAP	11	72	3
TAP	11	96	5
TAP	11	144	2
TAP	11	168	3
TAP	11	192	1
TAP	11	240	0
TAP	11	288	7
TAP	11	336	6
TAP	12	0	4
STR	12	0	5
SI_	12	0	5	96	48	2
TAP	12	72	0
TAP	12	96	5
TAP	12	144	1
STR	12	192	2
SI_	12	192	2	96	48	5
TAP	12	192	3
TAP	12	264	7
TAP	12	288	2
TAP	12	336	6
HLD	13	0	0	96
STR	13	0	5
SCR	13	0	5	96	96	4
TTP	13	192	0	C	0	M1
BRK	13	288	2
BRK	13	288	6
XTP	14	0	1
XTP	14	24	0
XTP	14	48	1
XTP	14	72	0
TTP	14	96	0	C	1	M1
XTP	14	192	6
XTP	14	216	7
XTP	14	240	6
XTP	14	264	7
TTP	14	288	0	C	1	M1
XTP	15	0	1
TAP	15	24	0
XTP	15	72	6
TAP	15	96	7
XTP	15	144	2
TAP	15	168	3
XTP	15	216	5
TAP	15	240	4
TTP	15	288	0	C	1	M1
TTP	15	288	2	B	0	M1
TTP	15	288	5	B	0	M1
TAP	16	0	0
TAP	16	0	7
TAP	16	48	0
TAP	16	48	7
TAP	16	96	1
TAP	16	96	6
TAP	16	144	1
TAP	16	144	6
TAP	16	192	0
TAP	16	204	1
TAP	16	216	2
TAP	16	240	4
TAP	16	264	1
TAP	16	288	7
TAP	16	300	6
TAP	16	312	5
TAP	16	336	3
TAP	16	360	6
XST	17	0	0
SI_	17	0	0	96	24	5
XTP	17	72	0
XST	17	72	6
SI_	17	72	6	96	24	3
XST	17	144	1
SI_	17	144	1	96	24	4
XTP	17	144	6
XTP	17	216	1
XST	17	216	7
SI_	17	216	7	96	24	2
XTP	17	288	0
XTP	17	288	7
XTP	17	336	0
BRK	18	0	1
BRK	18	0	6
TTP	18	336	0	C	1	M1
TAP	20	0	4
TAP	20	0	5
TAP	20	96	3
TAP	20	96	6
HLD	20	192	6	72
HLD	20	264	5	72
STR	20	336	4
SUL	20	336	4	96	240	3
TAP	21	336	2
TAP	21	360	3
TAP	22	0	2
TAP	22	96	1
TAP	22	96	4
HLD	22	192	2	72
HLD	22	264	1	72
TAP	22	336	0
TAP	23	48	2
TAP	23	96	3
TAP	23	144	4
TAP	23	192	5
TAP	23	240	4
TAP	23	288	3
TAP	23	336	2
TAP	24	0	2
TAP	24	0	3
TAP	24	96	1
TAP	24	96	4
HLD	24	192	1	72
HLD	24	264	2	72
STR	24	336	3
SUR	24	336	3	96	240	4
TAP	25	48	4
TAP	25	96	4
TAP	25	192	5
TAP	25	288	6
XTP	26	0	5
XTP	26	0	7
XTP	26	96	0
XTP	26	96	2
XHO	26	192	3	48
XHO	26	192	4	48
XHO	26	264	2	48
XHO	26	264	5	48
BRK	26	336	1
BRK	26	336	6
XTP	27	0	1
TAP	27	24	0
XTP	27	72	6
TAP	27	96	7
XTP	27	144	2
TAP	27	168	3
XTP	27	216	6
TAP	27	228	5
TAP	27	240	4
XTP	27	264	0
TAP	27	288	7
BRK	27	336	2
BRK	27	336	5
XST	28	0	0
SI_	28	0	0	96	48	4
XTP	28	0	1
TAP	28	96	0
HLD	28	96	6	96
HLD	28	192	7	72
HLD	28	264	5	72
TAP	28	336	4
TAP	29	0	2
TAP	29	0	3
TAP	29	48	2
TAP	29	48	3
TAP	29	96	1
TAP	29	96	4
TAP	29	144	5
TAP	29	168	4
TAP	29	216	2
TAP	29	240	3
TAP	29	288	0
TAP	29	312	0
TAP	29	336	4
TAP	29	360	3
STR	30	0	4
SI_	30	0	4	96	48	0
TAP	30	96	4
HLD	30	96	6	96
HLD	30	192	2	72
HLD	30	264	0	72
STR	30	336	7
SCR	30	336	7	96	96	3
TAP	31	48	3
TAP	31	96	4
TAP	31	144	5
TAP	31	192	6
TAP	31	192	7
TAP	31	216	6
TAP	31	216	7
HLD	31	264	5	48
TAP	31	312	2
TAP	31	336	4
TAP	31	360	3
STR	32	0	7
SI_	32	0	7	96	48	3
HLD	32	96	1	96
TAP	32	96	7
HLD	32	192	0	72
HLD	32	264	2	72
TAP	32	336	3
TAP	33	0	4
TAP	33	0	5
TAP	33	48	6
TAP	33	96	0
TAP	33	96	7
TAP	33	144	1
HLD	33	192	0	72
HLD	33	192	4	72
TAP	33	288	0
TAP	33	288	4
TAP	33	312	1
TAP	33	312	5
TAP	33	336	2
TAP	33	336	6
TAP	33	360	3
TAP	33	360	7
XST	34	0	0
SF_	34	0	0	96	48	4
XTP	34	0	4
TAP	34	96	0
HLD	34	192	4	48
HLD	34	192	6	48
HLD	34	264	1	48
HLD	34	264	3	48
BRK	34	336	0
BRK	34	336	7
XTP	35	0	6
TAP	35	24	6
TAP	35	24	7
XTP	35	72	1
TAP	35	96	0
TAP	35	96	1
XTP	35	144	5
TAP	35	168	4
TAP	35	168	5
XTP	35	216	2
TAP	35	240	2
TAP	35	240	3
BRK	35	288	1
BRK	35	288	6
HLD	36	0	1	192
STR	36	0	7
SXL	36	0	7	96	144	3
TAP	36	240	0
TAP	36	312	3
TAP	36	312	5
STR	37	0	1
SXR	37	0	1	96	144	5
HLD	37	0	7	192
TAP	37	240	6
TAP	37	312	2
TAP	37	312	4
TAP	38	0	1
TAP	38	0	3
TAP	38	32	2
TAP	38	32	4
TAP	38	64	3
HLD	38	64	5	80
TAP	38	144	7
TAP	38	192	0
TAP	38	192	4
TAP	38	264	1
TAP	38	264	5
TAP	38	336	2
TAP	38	336	6
XHO	39	0	3	96
XST	39	0	7
SCR	39	0	7	96	192	6
THO	39	144	0	144	C	0	M1
XTP	40	0	0
XTP	40	0	7
TAP	40	24	0
TAP	40	24	7
TAP	40	72	4
TAP	40	72	6
TAP	40	120	1
TAP	40	120	3
TAP	40	168	2
TAP	40	168	5
TAP	40	192	3
TAP	40	216	4
TAP	40	240	3
TAP	40	264	4
BRK	40	288	2
BRK	40	288	5
XTP	41	0	3
XTP	41	0	7
TAP	41	32	3
TAP	41	32	6
TAP	41	64	3
TAP	41	64	5
XTP	41	96	2
XTP	41	96	4
TAP	41	128	1
TAP	41	128	4
TAP	41	160	0
TAP	41	160	4
TAP	41	192	7
TAP	41	216	3
TAP	41	240	7
TAP	41	264	3
BRK	41	288	0
BRK	41	288	4
BRK	41	336	0
BRK	41	336	4
XST	42	0	1
SV_	42	0	1	96	48	4
XST	42	0	5
SV_	42	0	5	96	48	0
HLD	42	192	6	72
HLD	42	264	5	72
TAP	42	336	4
HLD	43	0	0	72
HLD	43	72	1	72
TAP	43	144	2
STR	43	192	4
SF_	43	192	4	96	48	0
HLD	44	0	1	72
HLD	44	72	2	72
TAP	44	144	3
STR	44	192	3
SCL	44	192	3	96	48	0
STR	44	192	7
SCL	44	192	7	96	48	4
BRK	45	0	0
HLD	45	0	4	768
TTP	45	336	7	B	0	M1
TTP	45	344	6	B	0	M1
TTP	45	352	6	E	0	M1
TTP	46	48	0	B	0	M1
TTP	46	56	1	B	0	M1
TTP	46	64	2	E	0	M1
STR	47	0	3
SUR	47	0	3	96	288	4
THO	48	0	0	384	C	1	M1
TTP	49	0	2	E	0	M1
TTP	49	0	6	E	0	M1
TAP	49	96	0
HLD	49	96	7	144
TAP	49	192	5
HLD	49	240	5	144
TAP	49	336	3
HLD	50	0	3	144
TAP	50	96	1
HLD	50	144	1	96
TAP	50	240	0
TAP	50	288	7
TAP	50	336	6
TAP	51	0	4
TAP	51	0	5
HLD	51	96	0	144
TAP	51	96	7
TAP	51	192	2
HLD	51	240	2	144
TAP	51	336	4
HLD	52	0	4	144
TAP	52	96	6
HLD	52	144	6	96
TAP	52	240	7
TAP	52	288	0
TAP	52	336	1
TAP	53	0	2
TAP	53	0	3
TAP	53	96	0
HLD	53	96	7	144
TAP	53	192	6
HLD	53	240	5	144
TAP	53	336	4
HLD	54	0	3	144
TAP	54	96	2
HLD	54	144	1	96
TAP	54	240	0
TAP	54	288	7
TAP	54	336	6
TAP	55	0	4
TAP	55	0	5
HLD	55	96	0	144
TAP	55	96	7
TAP	55	192	1
HLD	55	240	2	144
TAP	55	336	3
HLD	56	0	4	144
TAP	56	96	5
HLD	56	144	6	96
TAP	56	240	7
BRK	56	288	0
BRK	56	288	5
XTP	57	0	3
XTP	57	0	4
TAP	57	96	0
STR	57	96	7
SCL	57	96	7	96	144	2
TAP	57	192	3
STR	57	240	2
SCL	57	240	2	96	144	5
TAP	57	336	6
STR	58	0	5
SCL	58	0	5	96	144	0
TAP	58	96	1
STR	58	144	0
SCL	58	144	0	96	96	5
TAP	58	240	3
TAP	58	288	2
TAP	58	336	1
TAP	59	0	0
TAP	59	0	4
STR	59	96	0
SCR	59	96	0	96	144	5
TAP	59	96	7
TAP	59	192	4
STR	59	240	5
SCR	59	240	5	96	144	2
TAP	59	336	1
STR	60	0	2
SCR	60	0	2	96	144	7
TAP	60	96	6
STR	60	144	7
SCR	60	144	7	96	96	2
TAP	60	240	4
TAP	60	288	5
TAP	60	336	6
TAP	61	0	3
TAP	61	0	7
STR	61	96	0
SCL	61	96	0	96	144	3
TAP	61	96	1
TTP	61	192	4	B	0	M1
TTP	61	192	5	B	0	M1
STR	61	240	3
SCL	61	240	3	96	144	6
TTP	61	336	0	B	0	M1
TTP	61	336	7	B	0	M1
STR	62	0	6
SCL	62	0	6	96	144	1
TTP	62	96	2	B	0	M1
TTP	62	96	3	B	0	M1
STR	62	144	1
SCL	62	144	1	96	96	6
TAP	62	240	4
TAP	62	288	3
TAP	62	336	2
TAP	63	0	1
TAP	63	0	5
TAP	63	96	6
STR	63	96	7
SCR	63	96	7	96	144	4
TTP	63	192	2	B	0	M1
TTP	63	192	3	B	0	M1
STR	63	240	4
SCR	63	240	4	96	144	1
TTP	63	336	0	B	0	M1
TTP	63	336	7	B	0	M1
STR	64	0	1
SCR	64	0	1	96	144	6
TTP	64	96	4	B	0	M1
TTP	64	96	5	B	0	M1
STR	64	144	6
SCR	64	144	6	96	96	1
TAP	64	240	4
TAP	64	288	5
TAP	64	336	6
BST	65	0	4
SI_	65	0	4	96	96	0
HLD	65	0	7	288
TAP	65	288	1
TAP	65	300	0
TAP	65	312	7
TAP	65	324	6
TAP	65	336	5
TAP	65	348	4
TAP	65	360	3
TAP	65	372	2
XTP	66	0	1
XST	66	0	7
SUL	66	0	7	96	48	3
TAP	66	96	6
TAP	66	96	7
HLD	66	192	0	72
TAP	66	192	4
HLD	66	264	2	72
TAP	66	336	3
TAP	67	0	4
TAP	67	0	5
TAP	67	48	4
TAP	67	48	5
TAP	67	96	3
TAP	67	96	6
TAP	67	144	2
TAP	67	168	3
TAP	67	216	5
TAP	67	240	4
TAP	67	288	7
TAP	67	312	7
TAP	67	336	3
TAP	67	360	4
STR	68	0	2
SI_	68	0	2	96	48	7
TAP	68	96	1
TAP	68	96	2
TAP	68	192	0
HLD	68	192	5	72
HLD	68	264	7	72
STR	68	336	0
SCL	68	336	0	96	96	4
TAP	69	48	4
TAP	69	96	3
TAP	69	144	2
TAP	69	192	0
TAP	69	192	1
TAP	69	216	0
TAP	69	216	1
HLD	69	264	2	48
TAP	69	312	5
TAP	69	336	3
TAP	69	360	4
STR	70	0	0
SUR	70	0	0	96	48	4
TAP	70	96	0
TAP	70	96	6
TAP	70	192	3
HLD	70	192	7	72
HLD	70	264	5	72
TAP	70	336	4
TAP	71	0	2
TAP	71	0	3
TAP	71	48	1
TAP	71	96	0
TAP	71	96	7
TAP	71	144	6
HLD	71	192	3	72
HLD	71	192	7	72
TAP	71	288	3
TAP	71	288	7
TAP	71	312	2
TAP	71	312	6
TAP	71	336	1
TAP	71	336	5
TAP	71	360	0
TAP	71	360	4
TAP	72	0	3
XST	72	0	7
SF_	72	0	7	96	48	3
TAP	72	96	7
HLD	72	192	1	48
HLD	72	192	3	48
HLD	72	264	4	48
HLD	72	264	6	48
BRK	72	336	0
BRK	72	336	7
XTP	73	0	1
TAP	73	24	3
TAP	73	48	2
TAP	73	72	4
TAP	73	96	3
TAP	73	120	5
TAP	73	144	4
TAP	73	168	6
XTP	73	192	1
TAP	73	204	2
TAP	73	216	3
TAP	73	228	4
TAP	73	240	5
TAP	73	252	6
TAP	73	264	7
TAP	73	276	0
BRK	73	288	1
BRK	73	288	5
XTP	74	0	2
XTP	74	0	4
TAP	74	48	3
TAP	74	48	5
TAP	74	96	2
TAP	74	96	4
TAP	74	144	1
HLD	74	168	1	48
TAP	74	216	2
TAP	74	240	1
TAP	74	264	3
TAP	74	288	2
TAP	74	312	4
TAP	74	336	3
TAP	74	360	5
TAP	75	0	3
TAP	75	0	5
TAP	75	48	2
TAP	75	48	4
TAP	75	96	3
HLD	75	96	6	48
TAP	75	144	5
TAP	75	168	6
TAP	75	192	4
TAP	75	216	5
TAP	75	240	3
TAP	75	264	4
STR	75	288	2
SCL	75	288	2	96	120	3
TAP	75	312	3
HLD	76	0	7	192
BRK	76	192	0
TAP	76	240	5
TAP	76	264	4
STR	76	288	5
SI_	76	288	5	96	24	7
TAP	76	336	3
TAP	76	336	6
TAP	77	0	2
TAP	77	0	5
TAP	77	48	1
TAP	77	72	0
STR	77	96	1
SI_	77	96	1	96	24	3
TAP	77	144	0
TAP	77	144	7
TAP	77	192	1
TAP	77	192	6
TAP	77	240	5
TAP	77	264	3
TAP	77	288	4
TAP	77	312	2
TAP	77	336	3
TAP	77	360	1
TAP	78	0	2
TAP	78	0	3
TAP	78	48	2
TAP	78	48	3
TAP	78	96	1
TAP	78	96	4
TAP	78	144	5
TAP	78	168	4
TAP	78	168	5
TAP	78	216	2
TAP	78	240	2
TAP	78	240	3
TAP	78	288	7
TAP	78	312	0
TAP	78	336	7
TAP	78	360	0
TAP	79	0	6
TAP	79	24	6
TAP	79	48	5
TAP	79	72	5
TAP	79	96	4
TAP	79	120	4
TAP	79	144	3
TAP	79	168	3
TAP	79	192	2
TAP	79	216	2
TAP	79	240	1
TAP	79	264	1
TAP	79	288	6
TAP	79	300	5
TAP	79	312	4
TAP	79	324	3
TAP	79	336	2
TAP	79	348	1
TAP	79	360	0
TAP	79	372	7
XST	80	0	2
SI_	80	0	2	96	48	5
XST	80	0	6
SI_	80	0	6	96	48	1
TAP	80	96	2
TAP	80	96	6
TAP	80	192	0
TAP	80	192	7
TAP	80	240	3
TAP	80	264	4
BST	80	336	1
SCL	80	336	1	96	144	4
BST	80	336	6
SCR	80	336	6	96	144	3
TTP	81	240	3	E	0	M1
TTP	81	240	5	E	0	M1
TTP	81	252	0	C	1	M1
TTP	81	252	2	B	0	M1
TTP	81	252	5	B	0	M1
TTP	81	264	1	B	0	M1
TTP	81	264	6	B	0	M1
TTP	81	276	1	E	0	M1
TTP	81	276	7	E	0	M1
XST	82	0	0
SSL	82	0	0	96	96	4
XTP	82	0	7
HLD	82	192	6	72
HLD	82	264	5	72
STR	82	336	4
SI_	82	336	4	96	48	0
TAP	83	48	3
TAP	83	96	2
TAP	83	144	7
TAP	83	168	0
TAP	83	192	6
TAP	83	216	4
TAP	83	240	5
TAP	83	264	3
TAP	83	288	4
TAP	83	312	2
TAP	83	336	3
TAP	83	360	1
TAP	84	0	0
STR	84	0	2
SI_	84	0	2	96	48	7
TAP	84	72	3
TAP	84	96	2
TAP	84	144	6
TAP	84	192	0
STR	84	192	5
SI_	84	192	5	96	48	0
TAP	84	264	4
TAP	84	288	5
TAP	84	336	1
STR	85	0	2
SCL	85	0	2	96	96	3
HLD	85	0	7	96
TTP	85	192	0	C	0	M1
BRK	85	288	1
BRK	85	288	5
XTP	86	0	6
TAP	86	24	7
TAP	86	48	6
TAP	86	72	7
XTP	86	96	0
TTP	86	96	0	C	1	M1
XTP	86	192	1
TAP	86	216	0
TAP	86	240	1
TAP	86	264	0
TTP	86	288	0	C	1	M1
XTP	86	288	7
XTP	87	0	6
TAP	87	24	5
TAP	87	24	7
XTP	87	72	1
TAP	87	96	0
TAP	87	96	2
XTP	87	144	5
TAP	87	168	4
TAP	87	168	6
XTP	87	216	2
TAP	87	240	1
TAP	87	240	3
TTP	87	288	0	C	1	M1
TTP	87	288	2	B	0	M1
TTP	87	288	5	B	0	M1
TAP	88	0	6
TAP	88	0	7
TAP	88	48	0
TAP	88	48	6
TAP	88	96	0
TAP	88	96	1
TAP	88	144	1
TAP	88	144	7
TAP	88	192	5
TAP	88	204	4
TAP	88	216	3
TAP	88	240	0
TAP	88	264	6
TAP	88	288	2
TAP	88	300	3
TAP	88	312	4
TAP	88	336	7
TAP	88	360	1
XST	89	0	6
SI_	89	0	6	96	24	3
XST	89	72	0
SI_	89	72	0	96	24	5
TAP	89	72	6
TAP	89	144	0
XST	89	144	7
SI_	89	144	7	96	24	2
XST	89	216	1
SI_	89	216	1	96	24	4
TAP	89	216	7
TAP	89	288	1
TAP	89	288	6
TAP	89	336	5
BRK	90	0	3
BRK	90	0	7

T_REC_TAP	462
T_REC_BRK	34
T_REC_XTP	56
T_REC_HLD	81
T_REC_XHO	6
T_REC_STR	46
T_REC_BST	3
T_REC_XST	18
T_REC_TTP	59
T_REC_THO	2
T_REC_SLD	67
T_REC_ALL	834
T_NUM_TAP	641
T_NUM_BRK	37
T_NUM_HLD	89
T_NUM_SLD	67
T_NUM_ALL	834
T_JUDGE_TAP	678
T_JUDGE_HLD	216
T_JUDGE_SLD	67
T_JUDGE_ALL	961
TTM_EACHPAIRS	161
TTM_SCR_TAP	320500
TTM_SCR_BRK	96200
TTM_SCR_HLD	89000
TTM_SCR_SLD	100500
TTM_SCR_ALL	606200
TTM_SCR_S	584450
TTM_SCR_SS	602500
TTM_RAT_ACV	10061

