VERSION	0.00.00	1.03.00
FES_MODE	0
BPM_DEF	150.000	150.000	150.000	150.000
MET_DEF	4	4
RESOLUTION	384
CLK_DEF	384
COMPATIBLE_CODE	MA2

BPM	0	0	150.000
MET	0	0	4	4

TAP	1	336	3
TAP	1	336	4
TAP	2	0	3
TAP	2	0	4
TAP	2	96	2
TAP	2	144	2
TAP	2	144	3
TAP	2	240	5
TAP	2	288	4
HLD	2	336	5	96
TAP	3	48	3
TAP	3	96	4
HLD	3	144	3	96
TAP	3	240	5
TAP	3	288	4
TAP	3	336	6
TAP	4	0	4
TAP	4	48	5
TAP	4	96	4
HLD	4	144	5	96
TAP	4	240	3
TAP	4	288	4
HLD	4	336	2	96
TAP	5	48	4
TAP	5	96	3
TAP	5	144	5
TAP	5	240	4
TAP	5	240	5
TAP	5	336	0
TAP	5	336	7
TAP	6	0	0
TAP	6	0	7
TAP	6	96	2
TAP	6	96	3
TAP	6	192	1
TAP	6	192	2
TAP	6	288	0
TAP	6	288	1
TAP	7	0	0
TAP	7	0	7
TAP	7	96	6
TAP	7	96	7
TAP	7	192	5
TAP	7	192	6
TAP	7	288	4
TAP	7	288	5
TAP	8	0	5
TAP	8	48	6
TAP	8	96	7
TAP	8	144	0
TAP	8	192	1
TAP	8	240	2
STR	8	288	3
SXR	8	288	3	96	192	0
STR	8	288	4
SXL	8	288	4	96	192	7
BRK	9	288	1
BRK	9	288	6
HLD	10	0	1	72
HLD	10	72	2	72
TAP	10	144	3
TAP	10	240	5
TAP	10	288	4
TAP	10	288	5
TAP	11	0	2
TAP	11	96	1
TAP	11	96	3
TAP	11	192	5
TAP	11	240	5
TAP	11	288	4
TAP	11	288	6
HLD	12	0	7	72
HLD	12	72	6	72
TAP	12	144	5
TAP	12	240	2
TAP	12	288	2
TAP	12	288	3
TAP	13	0	5
TAP	13	96	4
TAP	13	96	6
TAP	13	192	0
TAP	13	192	7
TAP	13	240	0
TAP	13	240	7
TAP	13	288	1
TAP	13	288	6
TAP	14	0	2
TAP	14	24	3
TAP	14	48	2
TAP	14	72	3
BRK	14	96	2
TAP	14	192	5
TAP	14	216	4
TAP	14	240	5
TAP	14	264	4
BRK	14	288	5
TAP	15	0	3
TAP	15	24	4
TAP	15	48	3
TAP	15	72	4
TAP	15	96	3
TAP	15	120	4
TAP	15	144	3
BRK	15	168	4
XTP	15	240	0
XTP	15	288	0
XTP	15	336	0
TAP	16	0	2
TAP	16	0	3
TAP	16	96	4
TAP	16	96	5
TAP	16	192	6
TAP	16	192	7
TAP	16	288	0
TAP	16	288	1
HLD	17	0	1	48
HLD	17	0	3	48
HLD	17	72	4	48
HLD	17	72	6	48
HLD	17	144	0	48
HLD	17	144	7	48
HLD	17	216	1	48
HLD	17	216	6	48
TTP	17	288	3	B	0	M1
TTP	17	288	4	B	0	M1
TTP	17	336	0	B	0	M1
TTP	17	336	7	B	0	M1
TTP	18	0	0	C	1	M1
TTP	18	0	2	E	0	M1
TTP	18	0	6	E	0	M1
TTP	18	336	0	C	1	M1
TTP	18	336	2	E	0	M1
TTP	18	336	2	B	0	M1
TTP	18	336	5	B	0	M1
TTP	18	336	6	E	0	M1
HLD	20	0	2	384
TTP	20	96	2	B	0	M1
TTP	20	288	4	E	0	M1
HLD	21	0	5	384
TTP	21	96	5	B	0	M1
TTP	21	288	4	E	0	M1
HLD	22	0	2	384
TTP	22	96	2	B	0	M1
TTP	22	288	0	C	0	M1
HLD	23	0	6	384
TTP	23	96	5	E	0	M1
TTP	23	192	4	B	0	M1
TTP	23	288	3	B	0	M1
HLD	24	0	1	384
TTP	24	96	1	B	0	M1
TTP	24	96	2	B	0	M1
TTP	24	288	3	B	0	M1
TTP	24	288	4	B	0	M1
HLD	25	0	6	288
TTP	25	96	6	E	0	M1
TTP	25	192	5	B	0	M1
TTP	25	288	3	B	0	M1
TTP	25	288	4	B	0	M1
HLD	26	0	0	96
HLD	26	0	1	96
TAP	26	192	3
TAP	26	192	4
TAP	26	240	3
TAP	26	240	4
THO	26	336	0	120	C	1	M1
TTP	26	336	1	B	0	M1
TTP	26	336	2	B	0	M1
TTP	26	336	5	B	0	M1
TTP	26	336	6	B	0	M1
HLD	28	0	0	48
HLD	28	0	6	48
HLD	28	96	2	48
HLD	28	96	7	48
TAP	28	192	4
HLD	28	192	5	72
STR	28	264	4
SCR	28	264	4	96	120	1
XHO	28	336	7	144
STR	29	192	2
SI_	29	192	2	96	48	0
STR	29	192	7
SI_	29	192	7	96	48	3
HLD	30	0	1	48
HLD	30	0	4	48
HLD	30	96	3	48
HLD	30	96	6	48
HLD	30	192	2	72
TAP	30	192	3
STR	30	264	3
SI_	30	264	3	96	48	0
XTP	30	336	1
XTP	31	48	1
TAP	31	96	0
TAP	31	96	1
TAP	31	144	2
TAP	31	144	7
XTP	31	192	3
XTP	31	192	6
BRK	31	288	0
BRK	31	288	4
HLD	32	0	0	48
HLD	32	0	6	48
HLD	32	96	2	48
HLD	32	96	7	48
TAP	32	192	4
HLD	32	192	5	72
STR	32	264	4
SI_	32	264	4	96	48	7
XTP	32	336	6
XTP	33	48	6
TAP	33	96	6
TAP	33	96	7
TAP	33	144	0
TAP	33	144	5
XTP	33	192	1
XTP	33	192	4
XTP	33	240	1
XTP	33	240	4
XTP	33	288	2
XTP	33	312	3
XTP	33	336	2
XTP	33	360	3
XTP	34	0	2
TAP	34	96	0
TAP	34	96	7
TAP	34	192	4
TAP	34	192	6
TAP	34	240	4
TAP	34	240	6
TAP	34	336	1
TAP	34	336	3
TAP	35	0	1
TAP	35	0	3
TAP	35	96	3
TAP	35	96	4
BRK	35	192	1
BRK	35	192	6
STR	36	0	1
SCL	36	0	1	96	192	2
HLD	36	0	7	288
HLD	37	0	0	288
STR	37	0	6
SCR	37	0	6	96	192	5
HLD	38	0	4	288
STR	38	0	6
SCL	38	0	6	96	192	7
STR	39	0	1
SI_	39	0	1	96	48	4
STR	39	96	7
SI_	39	96	7	96	48	3
TAP	39	192	0
XTP	39	288	1
XTP	39	288	5
STR	40	0	3
SCL	40	0	3	96	96	0
STR	40	0	4
SCR	40	0	4	96	96	7
XTP	40	288	1
XTP	40	288	6
TAP	41	0	3
TAP	41	32	3
TAP	41	64	3
TAP	41	96	4
TAP	41	128	4
TAP	41	160	4
STR	41	192	3
SLL	41	192	3	96	96	7
HLD	42	0	6	96
HLD	42	96	4	96
HLD	42	192	3	96
XTP	42	288	1
HLD	43	0	7	96
HLD	43	96	1	96
HLD	43	192	3	96
XTP	43	288	5
HLD	44	0	7	96
HLD	44	96	5	96
HLD	44	192	3	96
XST	44	288	1
SI_	44	288	1	96	48	5
BST	45	0	7
SCL	45	0	7	96	1056	0
HLD	49	0	2	576
TTP	49	96	2	E	0	M1
TTP	49	192	2	B	0	M1
TTP	49	288	3	B	0	M1
TTP	50	0	4	E	0	M1
TTP	50	96	4	B	0	M1
TTP	50	192	0	C	0	M1
TTP	50	192	5	B	0	M1
HLD	51	0	6	576
TTP	51	96	6	E	0	M1
TTP	51	192	5	B	0	M1
TTP	51	288	4	B	0	M1
TTP	52	0	4	E	0	M1
TTP	52	96	3	B	0	M1
TTP	52	192	0	C	0	M1
TTP	52	192	2	B	0	M1
HLD	53	0	1	768
TTP	53	96	3	E	0	M1
TTP	53	192	2	E	0	M1
TTP	53	288	1	E	0	M1
TTP	54	0	0	E	0	M1
TTP	54	96	7	E	0	M1
TTP	54	192	6	E	0	M1
TTP	54	288	5	E	0	M1
HLD	55	0	3	576
TTP	55	96	3	E	0	M1
TTP	55	192	4	E	0	M1
TTP	55	288	5	E	0	M1
TTP	56	0	6	E	0	M1
TTP	56	96	7	E	0	M1
TTP	56	192	0	C	1	M1
TTP	56	192	2	B	0	M1
HLD	57	0	5	384
TAP	57	96	4
TAP	57	144	4
TAP	57	240	3
TAP	57	288	3
HLD	58	0	2	384
TAP	58	96	3
TAP	58	144	3
TAP	58	240	4
TAP	58	288	4
HLD	59	0	6	384
TAP	59	96	4
TAP	59	144	4
TAP	59	240	3
TAP	59	288	3
HLD	60	0	1	384
TAP	60	96	0
TAP	60	144	0
TAP	60	240	7
TAP	60	288	7
HLD	61	0	6	144
TAP	61	96	4
HLD	61	144	4	144
TAP	61	240	3
HLD	61	288	3	96
HLD	62	0	1	144
TAP	62	96	3
HLD	62	144	3	144
TAP	62	240	4
HLD	62	288	4	96
HLD	63	0	7	96
TAP	63	96	5
HLD	63	144	5	96
TAP	63	240	3
HLD	63	288	3	96
HLD	64	0	0	96
TAP	64	96	2
HLD	64	144	2	96
TAP	64	240	4
STR	64	288	4
SI_	64	288	4	96	48	0
BRK	65	0	6
HLD	66	0	2	48
HLD	66	0	7	48
HLD	66	96	0	48
HLD	66	96	5	48
HLD	66	192	2	72
TAP	66	192	7
XST	66	264	3
SCL	66	264	3	96	120	6
HLD	66	336	1	144
STR	67	192	1
SI_	67	192	1	96	48	4
STR	67	192	5
SI_	67	192	5	96	48	7
HLD	68	0	3	48
HLD	68	0	6	48
HLD	68	96	2	48
HLD	68	96	4	48
TAP	68	192	0
HLD	68	192	5	72
XST	68	264	4
SI_	68	264	4	96	48	0
STR	68	336	6
SI_	68	336	6	96	48	3
XTP	69	48	7
XTP	69	96	7
TAP	69	192	6
TAP	69	192	7
TAP	69	240	0
TAP	69	240	5
XTP	69	288	1
XTP	69	288	4
HLD	70	0	2	48
HLD	70	0	7	48
HLD	70	96	0	48
HLD	70	96	5	48
TAP	70	192	1
HLD	70	192	7	72
XST	70	264	3
SI_	70	264	3	96	48	0
XTP	70	336	5
XTP	71	48	7
TAP	71	96	0
TAP	71	96	1
TAP	71	144	2
TAP	71	144	7
XTP	71	192	3
XTP	71	192	6
XTP	71	240	3
XTP	71	240	6
TAP	71	288	5
TAP	71	312	4
TAP	71	336	5
TAP	71	360	4
XST	72	0	5
SI_	72	0	5	96	48	0
SI_	72	0	5	96	48	2
XTP	72	192	3
XTP	72	192	7
TAP	72	336	0
TAP	72	360	7
TAP	73	0	0
TAP	73	24	7
TAP	73	48	0
TAP	73	72	7
TAP	73	96	0
TAP	73	120	7
TAP	73	144	0
TAP	73	168	7
TAP	73	192	0
BRK	73	288	1
BRK	73	288	6
HLD	74	0	6	192
STR	74	0	7
SCR	74	0	7	96	144	5
STR	74	288	6
SCR	74	288	6	96	192	5
HLD	75	0	2	192
STR	75	288	2
SCL	75	288	2	96	144	5
HLD	76	0	7	144
TAP	76	240	6
TAP	76	288	2
TAP	76	288	4
TAP	76	336	0
TAP	76	336	5
TAP	77	48	1
TAP	77	96	3
TAP	77	96	5
TAP	77	144	2
TAP	77	144	7
STR	77	192	6
SI_	77	192	6	96	48	3
TAP	77	288	0
STR	78	0	1
SI_	78	0	1	96	48	4
TAP	78	96	7
HLD	78	192	6	72
XTP	78	264	7
XTP	78	336	0
XTP	78	336	5
STR	79	0	0
SI_	79	0	0	96	48	3
XTP	79	0	5
STR	79	96	5
SI_	79	96	5	96	48	0
STR	79	192	1
SI_	79	192	1	96	48	4
XTP	79	288	7
HLD	80	0	2	96
HLD	80	0	6	96
TAP	80	192	3
TAP	80	192	4
XTP	80	240	3
XTP	80	240	4
THO	80	336	0	120	C	1	M1
TTP	80	336	1	B	0	M1
TTP	80	336	2	B	0	M1
TTP	80	336	5	B	0	M1
TTP	80	336	6	B	0	M1
TAP	82	0	0
TAP	82	48	7
TAP	82	96	1
TAP	82	144	1
TAP	82	192	2
TAP	82	192	3
TAP	82	240	3
XTP	82	288	2
XTP	82	288	4
TAP	83	0	7
TAP	83	48	0
TAP	83	96	6
TAP	83	144	6
TAP	83	192	4
TAP	83	192	5
TAP	83	240	4
XTP	83	288	3
XTP	83	288	5
TAP	84	0	1
TAP	84	48	1
TAP	84	96	3
TAP	84	144	3
TAP	84	192	4
TAP	84	240	4
TAP	84	288	6
TAP	84	336	6
TAP	85	0	0
TAP	85	0	7
TAP	85	48	0
TAP	85	48	7
TAP	85	96	1
TAP	85	96	6
TAP	85	144	1
TAP	85	144	6
TAP	85	192	3
TAP	85	192	4
TAP	85	240	3
TAP	85	240	4
BRK	85	288	1
BRK	85	288	6
STR	86	0	0
SI_	86	0	0	96	48	5
STR	86	0	1
SI_	86	0	1	96	48	5
TAP	86	48	0
TAP	86	48	1
STR	86	192	6
SI_	86	192	6	96	48	2
STR	86	192	7
SI_	86	192	7	96	48	2
TAP	86	240	6
TAP	86	240	7
STR	87	0	0
SI_	87	0	0	96	48	4
TAP	87	48	0
STR	87	96	6
SI_	87	96	6	96	48	2
TAP	87	144	6
STR	87	192	7
SF_	87	192	7	96	48	3
HLD	88	0	6	96
HLD	88	96	4	96
HLD	88	192	3	96
TAP	88	288	1
XHO	89	0	0	48
XHO	89	0	7	48
XTP	89	72	0
XTP	89	72	7
XHO	89	144	1	48
XHO	89	144	6	48
XTP	89	216	1
XTP	89	216	6
TTP	89	288	3	B	0	M1
TTP	89	288	4	B	0	M1
TTP	89	336	0	C	1	M1
TTP	89	336	2	E	0	M1
TTP	89	336	6	E	0	M1

T_REC_TAP	234
T_REC_BRK	14
T_REC_XTP	51
T_REC_HLD	95
T_REC_XHO	5
T_REC_STR	34
T_REC_BST	1
T_REC_XST	5
T_REC_TTP	70
T_REC_THO	2
T_REC_SLD	41
T_REC_ALL	552
T_NUM_TAP	394
T_NUM_BRK	15
T_NUM_HLD	102
T_NUM_SLD	41
T_NUM_ALL	552
T_JUDGE_TAP	409
T_JUDGE_HLD	295
T_JUDGE_SLD	41
T_JUDGE_ALL	745
TTM_EACHPAIRS	113
TTM_SCR_TAP	197000
TTM_SCR_BRK	39000
TTM_SCR_HLD	102000
TTM_SCR_SLD	61500
TTM_SCR_ALL	399500
TTM_SCR_S	386100
TTM_SCR_SS	398000
TTM_RAT_ACV	10037

