VERSION	0.00.00	1.03.00
FES_MODE	0
BPM_DEF	150.000	150.000	150.000	150.000
MET_DEF	4	4
RESOLUTION	384
CLK_DEF	384
COMPATIBLE_CODE	MA2

BPM	0	0	150.000
MET	0	0	4	4

HLD	2	0	2	192
HLD	2	192	3	192
HLD	3	0	4	192
TAP	3	192	5
HLD	4	0	5	192
HLD	4	192	4	192
HLD	5	0	3	192
TAP	5	192	2
TAP	6	0	1
TAP	6	96	1
TAP	6	192	1
TAP	6	192	3
TAP	7	0	5
TAP	7	96	5
TAP	7	192	4
TAP	7	192	5
TAP	8	0	3
TAP	8	96	3
TAP	8	192	4
STR	8	288	3
SI_	8	288	3	96	192	0
STR	8	288	4
SI_	8	288	4	96	192	7
TAP	10	0	1
TAP	10	96	1
HLD	10	192	2	192
TAP	11	0	3
TAP	11	96	3
TAP	11	192	2
TAP	11	192	3
TAP	12	0	6
TAP	12	96	6
HLD	12	192	5	192
TAP	13	0	4
TAP	13	96	3
TAP	13	192	2
TAP	13	192	5
TAP	14	0	1
XTP	14	96	0
XTP	14	96	1
TAP	14	192	6
XTP	14	288	6
XTP	14	288	7
TAP	15	0	0
TAP	15	0	7
TAP	15	96	1
TAP	15	96	6
XTP	15	192	2
XTP	15	192	5
TAP	16	0	2
TAP	16	96	2
TAP	16	96	3
TAP	16	192	5
TAP	16	288	4
TAP	16	288	5
STR	17	0	3
SI_	17	0	3	96	192	0
BST	18	0	7
SCL	18	0	7	96	384	3
TTP	20	0	3	B	0	L1
TTP	20	0	3	E	0	L1
TTP	20	192	5	B	0	L1
TTP	20	192	5	E	0	L1
TTP	21	0	4	B	0	L1
TTP	21	96	0	C	0	L1
TTP	21	192	0	B	0	L1
TTP	22	0	5	B	0	L1
TTP	22	0	6	B	0	L1
TTP	22	192	0	B	0	L1
TTP	22	192	1	E	0	L1
TTP	23	0	7	E	0	L1
TTP	23	96	0	C	0	L1
TTP	23	192	3	E	0	L1
TTP	24	0	2	E	0	L1
TTP	24	0	6	E	0	L1
TTP	24	192	3	B	0	L1
TTP	24	192	4	B	0	L1
TTP	25	0	3	E	0	L1
TTP	25	0	5	E	0	L1
TTP	25	96	2	B	0	L1
TTP	25	96	5	B	0	L1
TTP	25	192	1	B	0	L1
TTP	25	192	6	B	0	L1
XTP	26	0	0
XTP	26	0	7
THO	26	192	0	144	C	1	L1
XTP	27	288	0
XTP	27	288	7
BRK	28	0	1
BRK	28	0	6
TAP	28	96	2
TAP	28	192	3
TAP	28	288	5
TAP	29	0	6
TAP	29	0	7
TAP	29	96	6
TAP	29	96	7
TAP	29	192	0
TAP	29	192	5
TAP	30	0	1
TAP	30	0	6
TAP	30	96	5
TAP	30	192	4
TAP	30	288	2
TAP	31	0	0
TAP	31	0	1
TAP	31	96	0
TAP	31	96	1
TAP	31	192	2
TAP	31	192	7
TAP	32	0	0
TAP	32	96	1
TAP	32	192	2
TAP	32	288	3
TAP	33	0	4
TAP	33	0	5
TAP	33	96	4
TAP	33	96	5
TAP	33	192	6
TAP	33	288	0
TAP	33	288	7
XST	34	0	1
SLR	34	0	1	96	288	0
XST	34	0	6
SLL	34	0	6	96	288	7
BRK	35	192	1
BRK	35	192	6
HLD	36	0	2	192
TAP	36	96	3
TAP	36	192	4
HLD	37	0	6	192
TAP	37	96	7
TAP	37	192	0
HLD	38	0	1	96
TAP	38	96	3
HLD	38	192	6	96
TAP	38	288	4
TAP	39	0	3
TAP	39	0	4
TAP	39	96	2
TAP	39	96	5
XTP	39	192	1
XTP	39	192	6
TTP	40	0	0	C	1	L1
TTP	40	0	1	B	0	L1
TTP	40	0	2	B	0	L1
TTP	41	0	0	C	1	L1
TTP	41	0	5	B	0	L1
TTP	41	0	6	B	0	L1
TAP	42	0	2
TAP	42	96	3
TAP	42	192	4
TAP	42	288	5
TAP	43	0	4
TAP	43	0	5
TAP	43	96	3
TAP	43	96	4
TAP	43	192	2
TAP	43	192	3
TAP	44	0	3
TAP	44	0	4
TAP	44	96	2
TAP	44	96	5
XTP	44	192	1
XTP	44	192	6
HLD	45	0	2	384
HLD	46	0	3	384
HLD	47	0	4	384
TAP	48	0	5
STR	49	0	2
SCL	49	0	2	96	288	7
TAP	50	192	6
STR	51	0	5
SCL	51	0	5	96	288	2
TAP	52	192	0
STR	53	0	1
SLL	53	0	1	96	336	3
TAP	54	192	4
STR	55	0	5
SLL	55	0	5	96	336	7
TAP	56	192	0
STR	57	0	0
SI_	57	0	0	96	288	5
STR	57	0	1
SI_	57	0	1	96	288	4
TAP	58	192	6
STR	59	0	6
SI_	59	0	6	96	288	3
STR	59	0	7
SI_	59	0	7	96	288	2
XTP	60	192	0
XTP	60	192	1
STR	61	0	0
SI_	61	0	0	96	288	4
STR	61	0	7
SI_	61	0	7	96	288	3
TAP	62	192	2
TAP	62	192	5
STR	63	0	1
SLR	63	0	1	96	432	0
STR	63	0	6
SLL	63	0	6	96	432	7
THO	65	0	0	192	C	0	L1
BRK	66	0	1
BRK	66	0	6
TAP	66	96	2
TAP	66	192	3
TAP	66	288	4
TAP	66	288	5
TAP	67	0	6
TAP	67	48	6
TAP	67	96	6
TAP	67	192	1
TAP	67	192	7
TAP	68	0	0
TAP	68	0	6
TAP	68	96	5
TAP	68	192	4
TAP	68	288	2
TAP	68	288	3
TAP	69	0	1
TAP	69	48	1
TAP	69	96	1
TAP	69	192	0
TAP	69	192	6
TAP	70	0	5
TAP	70	96	6
TAP	70	192	0
TAP	70	192	7
TAP	70	288	1
TAP	70	288	6
TAP	71	0	2
TAP	71	48	2
TAP	71	96	2
TAP	71	192	3
TAP	71	192	4
XTP	72	0	2
XTP	72	0	5
THO	72	192	0	144	C	1	L1
XTP	73	288	0
XTP	73	288	7
HLD	74	0	1	96
TAP	74	96	3
HLD	74	192	6	96
TAP	74	288	4
HLD	75	0	2	96
TAP	75	96	3
TAP	75	192	3
TAP	75	192	4
TAP	75	288	4
TAP	75	288	5
HLD	76	0	6	96
TAP	76	96	7
HLD	76	192	1	96
TAP	76	288	0
TAP	77	0	0
TAP	77	0	1
TAP	77	96	2
TAP	77	96	7
TAP	77	192	3
TAP	77	192	6
HLD	78	0	2	96
TAP	78	96	3
TAP	78	192	0
TAP	78	192	1
HLD	79	0	6	96
TAP	79	96	7
TAP	79	192	4
TAP	79	192	5
XTP	80	0	1
XTP	80	0	6
THO	80	192	0	144	C	1	L1
TAP	82	0	1
TAP	82	96	2
TAP	82	192	3
TAP	82	192	5
TAP	82	288	3
TAP	82	288	5
TAP	83	0	2
TAP	83	96	1
TAP	83	192	0
TAP	83	192	1
TAP	84	0	6
TAP	84	96	5
TAP	84	192	2
TAP	84	192	4
TAP	84	288	2
TAP	84	288	4
TAP	85	0	5
TAP	85	96	6
TAP	85	192	1
TAP	85	192	7
TAP	86	0	5
TAP	86	48	5
XTP	86	96	5
TAP	86	192	3
TAP	86	240	3
XTP	86	288	3
TAP	87	0	4
TAP	87	48	4
XTP	87	96	4
TAP	87	192	2
TAP	87	192	5
TAP	87	288	1
TAP	87	288	6
STR	88	0	0
SCR	88	0	0	96	192	3
STR	88	0	7
SCL	88	0	7	96	192	4
THO	89	0	0	336	C	1	L1

T_REC_TAP	182
T_REC_BRK	6
T_REC_XTP	25
T_REC_HLD	22
T_REC_XHO	0
T_REC_STR	17
T_REC_BST	1
T_REC_XST	2
T_REC_TTP	30
T_REC_THO	5
T_REC_SLD	20
T_REC_ALL	310
T_NUM_TAP	256
T_NUM_BRK	7
T_NUM_HLD	27
T_NUM_SLD	20
T_NUM_ALL	310
T_JUDGE_TAP	263
T_JUDGE_HLD	102
T_JUDGE_SLD	20
T_JUDGE_ALL	385
TTM_EACHPAIRS	70
TTM_SCR_TAP	128000
TTM_SCR_BRK	18200
TTM_SCR_HLD	27000
TTM_SCR_SLD	30000
TTM_SCR_ALL	203200
TTM_SCR_S	196450
TTM_SCR_SS	202500
TTM_RAT_ACV	10034

