VERSION	0.00.00	1.03.00
FES_MODE	0
BPM_DEF	150.000	150.000	150.000	150.000
MET_DEF	4	4
RESOLUTION	384
CLK_DEF	384
COMPATIBLE_CODE	MA2

BPM	0	0	150.000
MET	0	0	4	4

TAP	6	0	3
TAP	6	192	3
TAP	7	0	3
TAP	8	0	4
TAP	8	192	4
BRK	9	0	4
TAP	10	0	3
TAP	10	192	3
TAP	11	0	2
TAP	11	192	2
TAP	12	0	1
TAP	12	192	1
HLD	13	0	0	192
XTP	14	0	7
XTP	14	192	0
XHO	15	0	7	192
TAP	16	0	6
TAP	16	192	6
TAP	17	0	5
TAP	17	192	3
TAP	17	192	4
THO	18	0	0	336	C	1	L1
TAP	20	0	7
TAP	20	192	7
HLD	21	0	6	192
TAP	22	0	5
TAP	22	192	5
TAP	23	0	4
TAP	23	96	4
TAP	23	192	3
TAP	23	192	4
TAP	24	0	2
TAP	24	192	2
HLD	25	0	1	192
XTP	26	0	0
XTP	26	0	7
XHO	26	192	0	144
XHO	26	192	7	144
STR	28	0	0
SI_	28	0	0	96	288	4
STR	30	0	7
SI_	30	0	7	96	288	3
STR	32	0	1
SI_	32	0	1	96	288	5
XTP	34	0	0
XTP	34	0	7
XHO	34	192	0	144
XHO	34	192	7	144
TTP	36	0	0	B	0	L1
TTP	36	0	7	B	0	L1
TTP	37	0	1	B	0	L1
TTP	37	0	2	E	0	L1
TTP	37	0	6	B	0	L1
TTP	37	0	6	E	0	L1
TTP	38	0	2	B	0	L1
TTP	38	0	3	E	0	L1
TTP	38	0	5	B	0	L1
TTP	38	0	5	E	0	L1
TTP	39	0	3	B	0	L1
TTP	39	0	4	E	0	L1
TTP	39	0	4	B	0	L1
TTP	40	0	1	B	0	L1
TTP	40	0	2	B	0	L1
TTP	40	0	5	B	0	L1
TTP	40	0	6	B	0	L1
THO	41	0	0	192	C	1	L1
STR	42	0	7
SI_	42	0	7	96	288	4
STR	44	0	0
SI_	44	0	0	96	288	3
HLD	47	0	4	192
HLD	48	0	3	192
TAP	49	0	4
TAP	49	192	4
TAP	50	0	5
TAP	50	192	5
TAP	51	0	6
TAP	51	192	6
TAP	52	0	7
TAP	52	192	7
TAP	53	0	0
TAP	53	192	0
TAP	54	0	1
TAP	54	192	1
TAP	55	0	2
TAP	55	192	2
TAP	56	0	3
TAP	56	192	3
TAP	56	192	4
TTP	57	0	5	E	0	L1
TTP	57	192	5	B	0	L1
TTP	58	0	6	E	0	L1
TTP	58	192	6	B	0	L1
TTP	59	0	7	E	0	L1
TTP	59	192	7	B	0	L1
TTP	60	0	0	E	0	L1
TTP	60	192	0	B	0	L1
TTP	61	0	1	E	0	L1
TTP	61	192	1	B	0	L1
TTP	62	0	2	E	0	L1
TTP	62	192	2	B	0	L1
TTP	63	0	3	E	0	L1
TTP	63	192	3	B	0	L1
TTP	64	0	4	E	0	L1
TTP	64	192	2	B	0	L1
TTP	64	192	5	B	0	L1
TTP	65	0	0	C	1	L1
TAP	66	0	7
TAP	66	96	7
TAP	66	192	6
TAP	66	288	6
HLD	67	0	5	192
HLD	67	0	7	192
TAP	68	0	5
TAP	68	96	5
TAP	68	192	4
TAP	68	288	4
TAP	69	0	3
TAP	69	96	3
TAP	69	192	3
TAP	69	192	4
TAP	70	0	3
TAP	70	96	3
TAP	70	192	2
TAP	70	288	2
HLD	71	0	1	192
HLD	71	0	3	192
TAP	72	0	0
TAP	72	0	7
TAP	72	96	0
TAP	72	96	7
STR	72	192	0
SI_	72	192	0	96	288	4
STR	72	192	7
SI_	72	192	7	96	288	3
TAP	74	0	2
TAP	74	96	2
TAP	74	192	2
TAP	75	0	3
TAP	75	96	3
TAP	75	192	3
TAP	76	0	4
TAP	76	96	4
TAP	76	192	4
TAP	77	0	5
TAP	77	96	5
TAP	77	192	5
STR	78	0	6
SI_	78	0	6	96	288	3
STR	78	0	7
SI_	78	0	7	96	288	2
STR	80	0	0
SI_	80	0	0	96	288	5
STR	80	0	1
SI_	80	0	1	96	288	4
TAP	82	0	7
TAP	82	192	7
TAP	83	0	6
TAP	83	192	6
TAP	84	0	5
TAP	84	192	5
TAP	85	0	4
TAP	85	192	4
XTP	86	0	2
XTP	86	0	3
XTP	86	192	4
XTP	86	192	5
TAP	87	0	3
TAP	87	96	3
TAP	87	192	4
TAP	87	288	4
TTP	88	0	3	B	0	L1
TTP	88	0	4	B	0	L1
TTP	88	192	2	B	0	L1
TTP	88	192	5	B	0	L1
THO	89	0	0	336	C	1	L1

T_REC_TAP	87
T_REC_BRK	1
T_REC_XTP	10
T_REC_HLD	9
T_REC_XHO	5
T_REC_STR	11
T_REC_BST	0
T_REC_XST	0
T_REC_TTP	39
T_REC_THO	3
T_REC_SLD	11
T_REC_ALL	176
T_NUM_TAP	147
T_NUM_BRK	1
T_NUM_HLD	17
T_NUM_SLD	11
T_NUM_ALL	176
T_JUDGE_TAP	148
T_JUDGE_HLD	70
T_JUDGE_SLD	11
T_JUDGE_ALL	229
TTM_EACHPAIRS	17
TTM_SCR_TAP	73500
TTM_SCR_BRK	2600
TTM_SCR_HLD	17000
TTM_SCR_SLD	16500
TTM_SCR_ALL	109600
TTM_SCR_S	106250
TTM_SCR_SS	109500
TTM_RAT_ACV	10009

