VERSION	0.00.00	1.03.00
FES_MODE	0
BPM_DEF	136.000	136.000	136.000	136.000
MET_DEF	4	4
RESOLUTION	384
CLK_DEF	384
COMPATIBLE_CODE	MA2

BPM	0	0	136.000
MET	0	0	4	4

BST	1	288	3
SCL	1	288	3	96	1536	4
BST	1	288	4
SCR	1	288	4	96	1536	3
BRK	6	192	2
BRK	6	192	5
STR	7	0	5
SI_	7	0	5	96	48	2
HLD	7	96	1	192
STR	7	192	2
SI_	7	192	2	96	48	5
STR	8	0	2
SI_	8	0	2	96	48	5
HLD	8	96	6	192
STR	8	192	5
SI_	8	192	5	96	48	2
STR	9	0	5
SI_	9	0	5	96	48	2
HLD	9	96	1	192
STR	9	192	2
SI_	9	192	2	96	48	5
STR	10	0	0
SI_	10	0	0	96	48	3
STR	10	96	7
SI_	10	96	7	96	48	4
STR	11	0	6
SI_	11	0	6	96	48	1
HLD	11	96	2	192
STR	11	192	1
SI_	11	192	1	96	48	6
STR	12	0	1
SI_	12	0	1	96	48	6
HLD	12	96	5	192
STR	12	192	6
SI_	12	192	6	96	48	1
STR	13	0	4
SI_	13	0	4	96	48	7
HLD	13	96	1	96
STR	13	192	7
SI_	13	192	7	96	48	4
STR	13	288	0
SSL	13	288	0	96	72	4
TAP	15	0	2
TAP	15	48	2
TAP	15	96	4
TAP	15	144	3
STR	15	192	5
SI_	15	192	5	96	24	3
STR	15	240	5
SI_	15	240	5	96	24	7
TAP	16	0	2
TAP	16	48	2
STR	16	96	3
SXR	16	96	3	96	120	4
TAP	16	144	4
HLD	16	192	5	96
TAP	17	0	5
TAP	17	48	5
TAP	17	96	3
TAP	17	144	4
STR	17	192	2
SI_	17	192	2	96	24	4
STR	17	240	2
SI_	17	240	2	96	24	0
TAP	18	0	5
TAP	18	48	5
STR	18	96	4
SXL	18	96	4	96	120	3
TAP	18	144	3
HLD	18	192	2	96
TAP	19	0	2
TAP	19	48	2
TAP	19	96	4
TAP	19	144	3
STR	19	192	5
SI_	19	192	5	96	24	3
STR	19	240	5
SI_	19	240	5	96	24	7
TAP	20	0	2
TAP	20	48	2
STR	20	96	3
SXR	20	96	3	96	120	4
TAP	20	144	4
HLD	20	192	5	96
TAP	21	0	5
TAP	21	48	5
TAP	21	96	3
TAP	21	144	4
STR	21	192	2
SI_	21	192	2	96	24	4
STR	21	240	2
SI_	21	240	2	96	24	0
TAP	22	0	5
TAP	22	48	6
STR	22	96	7
SXR	22	96	7	96	120	7
TAP	22	144	0
TAP	22	192	1
TAP	23	0	2
TAP	23	48	2
TAP	23	96	4
TAP	23	144	3
STR	23	192	6
SI_	23	192	6	96	24	4
STR	23	240	6
SI_	23	240	6	96	24	0
TAP	24	0	3
TAP	24	48	2
STR	24	96	1
SXR	24	96	1	96	120	2
TAP	24	144	1
HLD	24	192	3	96
TAP	25	0	5
TAP	25	48	5
TAP	25	96	3
TAP	25	144	4
STR	25	192	1
SI_	25	192	1	96	24	3
STR	25	240	1
SI_	25	240	1	96	24	7
TAP	26	0	4
TAP	26	48	5
STR	26	96	6
SXL	26	96	6	96	120	5
TAP	26	144	6
HLD	26	192	4	96
TAP	27	0	2
TAP	27	48	2
TAP	27	96	4
TAP	27	144	3
STR	27	192	6
SI_	27	192	6	96	24	4
STR	27	240	6
SI_	27	240	6	96	24	0
TAP	28	0	3
TAP	28	48	2
STR	28	96	1
SXR	28	96	1	96	120	2
TAP	28	144	1
HLD	28	192	3	96
TAP	29	0	2
TAP	29	48	2
TAP	29	96	4
TAP	29	144	3
STR	29	192	6
SI_	29	192	6	96	24	4
STR	29	240	6
SI_	29	240	6	96	24	0
TAP	30	0	3
TAP	30	48	1
STR	30	96	0
SI_	30	96	0	96	48	4
BRK	30	192	7
STR	30	288	2
SCL	30	288	2	96	432	5
TTP	31	96	4	B	0	M1
TTP	31	96	4	E	0	M1
TTP	31	288	2	B	0	M1
TTP	31	288	2	E	0	M1
TTP	32	96	0	B	0	M1
TTP	32	96	0	E	0	M1
TAP	32	192	4
STR	32	288	5
SCR	32	288	5	96	432	2
TTP	33	96	3	B	0	M1
TTP	33	96	4	E	0	M1
TTP	33	288	5	B	0	M1
TTP	33	288	6	E	0	M1
TTP	34	96	0	E	0	M1
TTP	34	96	7	B	0	M1
TAP	34	192	3
STR	34	288	2
SCL	34	288	2	96	72	0
STR	35	96	5
SCR	35	96	5	96	72	7
STR	35	288	1
SCR	35	288	1	96	72	3
STR	36	96	6
SCL	36	96	6	96	72	4
TAP	36	192	3
STR	36	288	2
SCR	36	288	2	96	288	1
STR	37	288	5
SI_	37	288	5	96	48	2
STR	38	96	2
SI_	38	96	2	96	48	5
STR	38	288	6
SCL	38	288	6	96	432	1
TTP	39	96	0	E	0	M1
TTP	39	96	7	B	0	M1
TTP	39	288	5	B	0	M1
TTP	39	288	6	E	0	M1
TTP	40	96	3	B	0	M1
TTP	40	96	4	E	0	M1
TAP	40	192	0
STR	40	288	1
SCR	40	288	1	96	432	6
TTP	41	96	0	E	0	M1
TTP	41	96	7	B	0	M1
TTP	41	288	1	B	0	M1
TTP	41	288	2	E	0	M1
TTP	42	96	3	B	0	M1
TTP	42	96	4	E	0	M1
TAP	42	192	7
STR	42	288	6
SCL	42	288	6	96	72	4
STR	43	96	3
SCL	43	96	3	96	72	1
STR	43	288	4
SCR	43	288	4	96	72	6
STR	44	96	1
SCR	44	96	1	96	72	3
STR	44	288	6
SCL	44	288	6	96	288	7
STR	45	288	1
SI_	45	288	1	96	48	5
STR	46	288	0
SUR	46	288	0	96	96	7
TAP	46	288	4
STR	47	0	7
SUL	47	0	7	96	96	1
STR	47	96	1
SCR	47	96	1	96	96	6
STR	47	192	6
SUL	47	192	6	96	96	0
TAP	47	288	0
STR	48	0	3
SF_	48	0	3	96	48	7
TAP	48	96	3
TAP	48	192	1
TAP	48	192	5
TAP	48	240	2
STR	48	288	3
SCL	48	288	3	96	96	6
TAP	48	288	7
STR	49	0	6
SUL	49	0	6	96	96	1
STR	49	96	1
SCL	49	96	1	96	96	4
STR	49	192	4
SUL	49	192	4	96	96	7
TAP	49	288	7
STR	50	0	5
SCR	50	0	5	96	96	4
TTP	50	96	0	C	1	M1
TAP	50	192	0
TAP	50	240	1
STR	50	288	2
SI_	50	288	2	96	48	0
TAP	50	288	7
STR	51	0	2
SI_	51	0	2	96	48	4
STR	51	0	5
SI_	51	0	5	96	48	7
STR	51	96	2
SI_	51	96	2	96	48	0
TAP	51	96	5
STR	51	192	2
SI_	51	192	2	96	48	4
STR	51	192	5
SI_	51	192	5	96	48	7
TAP	51	288	2
TAP	51	288	5
STR	52	0	0
SF_	52	0	0	96	48	4
TAP	52	96	0
TAP	52	192	2
TAP	52	192	6
TAP	52	240	5
STR	52	288	0
SCR	52	288	0	96	48	3
TAP	52	288	4
STR	53	0	0
SI_	53	0	0	96	48	5
STR	53	0	6
SV_	53	0	6	96	48	3
STR	53	96	0
SCR	53	96	0	96	48	3
TAP	53	96	6
STR	53	192	0
SI_	53	192	0	96	48	5
STR	53	192	6
SV_	53	192	6	96	48	3
TAP	53	288	0
TAP	53	288	6
TAP	54	0	0
TAP	54	0	4
TAP	54	48	1
TAP	54	96	2
TAP	54	96	7
TAP	54	144	6
BRK	54	192	0
BRK	54	192	5
TAP	54	288	3
STR	54	288	7
SUL	54	288	7	96	96	0
STR	55	0	0
SUR	55	0	0	96	96	6
STR	55	96	6
SCL	55	96	6	96	96	1
STR	55	192	1
SUR	55	192	1	96	96	7
TAP	55	288	7
STR	56	0	4
SF_	56	0	4	96	48	0
TAP	56	96	4
TAP	56	192	2
TAP	56	192	6
TAP	56	240	5
TAP	56	288	0
STR	56	288	4
SCR	56	288	4	96	96	1
STR	57	0	1
SUR	57	0	1	96	96	6
STR	57	96	6
SCR	57	96	6	96	96	3
STR	57	192	3
SUR	57	192	3	96	96	0
TAP	57	288	0
STR	58	0	2
SCL	58	0	2	96	96	3
TTP	58	96	0	C	1	M1
TAP	58	192	7
TAP	58	240	6
TAP	58	288	0
STR	58	288	5
SI_	58	288	5	96	48	7
STR	59	0	2
SI_	59	0	2	96	48	0
STR	59	0	5
SI_	59	0	5	96	48	3
TAP	59	96	2
STR	59	96	5
SI_	59	96	5	96	48	7
STR	59	192	2
SI_	59	192	2	96	48	0
STR	59	192	5
SI_	59	192	5	96	48	3
TAP	59	288	2
TAP	59	288	5
STR	60	0	7
SF_	60	0	7	96	48	3
TAP	60	96	7
TAP	60	192	1
TAP	60	192	5
TAP	60	240	2
TAP	60	288	3
STR	60	288	7
SCL	60	288	7	96	48	4
STR	61	0	1
SV_	61	0	1	96	48	4
STR	61	0	7
SI_	61	0	7	96	48	2
TAP	61	96	1
STR	61	96	7
SCL	61	96	7	96	48	4
STR	61	192	1
SV_	61	192	1	96	48	4
STR	61	192	7
SI_	61	192	7	96	48	2
TAP	61	288	1
TAP	61	288	7
TAP	62	0	3
TAP	62	0	7
TAP	62	48	6
TAP	62	96	1
TAP	62	96	3
TAP	62	144	2
TAP	62	192	4
TAP	62	192	6
TAP	62	240	5
BST	62	288	0
SCR	62	288	0	96	96	7
BRK	62	288	4
STR	63	0	7
SUL	63	0	7	96	96	1
STR	63	96	1
SCR	63	96	1	96	96	6
STR	63	192	6
SUL	63	192	6	96	96	0
TAP	63	288	0
STR	64	0	3
SF_	64	0	3	96	48	7
TAP	64	96	3
TAP	64	192	1
TAP	64	192	5
TAP	64	240	2
STR	64	288	3
SCL	64	288	3	96	48	0
STR	64	288	7
SCL	64	288	7	96	48	4
STR	65	0	3
SUR	65	0	3	96	48	7
STR	65	0	7
SUR	65	0	7	96	48	3
STR	65	96	3
SCL	65	96	3	96	48	0
STR	65	96	7
SCL	65	96	7	96	48	4
STR	65	192	3
SUR	65	192	3	96	48	7
STR	65	192	7
SUR	65	192	7	96	48	3
TAP	65	288	3
TAP	65	288	7
TAP	66	0	2
STR	66	0	6
SCR	66	0	6	96	96	5
TTP	66	96	0	C	1	M1
TAP	66	192	0
TAP	66	240	1
STR	66	288	2
SCL	66	288	2	96	48	7
TAP	66	288	7
STR	67	0	2
SI_	67	0	2	96	48	4
STR	67	0	4
SCR	67	0	4	96	48	7
STR	67	96	2
SCL	67	96	2	96	48	7
TAP	67	96	4
STR	67	192	2
SI_	67	192	2	96	48	4
STR	67	192	4
SCR	67	192	4	96	48	7
TAP	67	288	2
TAP	67	288	4
STR	68	0	7
SF_	68	0	7	96	48	3
TAP	68	96	7
TAP	68	192	1
TAP	68	192	5
TAP	68	240	2
TAP	68	288	3
TAP	68	288	7
TTP	69	0	0	C	1	M1
STR	69	0	4
SXL	69	0	4	96	192	4
SXR	69	0	4	96	192	4
STR	70	0	0
SI_	70	0	0	96	48	4
TAP	70	0	6
TAP	70	96	0
STR	70	96	4
SI_	70	96	4	96	48	2
SI_	70	96	4	96	48	6
TAP	70	192	4
BRK	70	288	3
BRK	70	288	7
TAP	71	0	1
TAP	71	0	4
TAP	71	48	2
TAP	71	96	3
TAP	71	96	4
TAP	71	144	5
TAP	71	168	4
TAP	71	192	6
TAP	71	216	4
TAP	71	240	7
TAP	71	288	0
TAP	71	288	1
TAP	71	336	2
TAP	71	336	7
TAP	72	0	3
TAP	72	0	6
TAP	72	48	5
TAP	72	96	3
TAP	72	96	4
TAP	72	144	2
TAP	72	168	3
TAP	72	192	1
TAP	72	216	3
TAP	72	240	0
TAP	72	288	6
TAP	72	288	7
TAP	72	336	0
TAP	72	336	5
TAP	73	0	1
TAP	73	0	4
TAP	73	48	2
TAP	73	96	3
TAP	73	96	4
TAP	73	144	5
TAP	73	168	4
TAP	73	192	6
TAP	73	216	4
TAP	73	240	7
TAP	73	288	0
TAP	73	288	1
TAP	73	336	2
TAP	73	336	7
TAP	74	0	3
TAP	74	0	6
TAP	74	48	1
TAP	74	48	4
STR	74	96	0
SCR	74	96	0	96	48	3
STR	74	96	7
SCL	74	96	7	96	48	4
TAP	74	192	0
TAP	74	192	7
BRK	74	288	1
BRK	74	288	6
TAP	75	0	0
STR	75	24	1
SI_	75	24	1	96	96	3
TAP	75	48	7
TAP	75	72	6
STR	75	120	3
SV_	75	120	3	96	96	4
STR	75	216	4
SI_	75	216	4	96	48	6
TAP	75	312	7
STR	76	24	7
SI_	76	24	7	96	96	4
STR	76	120	4
SUR	76	120	4	96	96	3
TAP	76	216	3
TAP	76	312	0
STR	77	0	5
SI_	77	0	5	96	48	1
STR	77	96	1
SCL	77	96	1	96	96	3
TAP	77	192	3
TAP	77	288	0
STR	78	0	1
SI_	78	0	1	96	48	5
STR	78	96	1
SCL	78	96	1	96	96	2
XTP	78	192	1
TAP	78	288	7
BRK	79	0	0
BST	79	0	4
SI_	79	0	4	96	576	0

T_REC_TAP	200
T_REC_BRK	11
T_REC_XTP	1
T_REC_HLD	12
T_REC_XHO	0
T_REC_STR	136
T_REC_BST	4
T_REC_XST	0
T_REC_TTP	28
T_REC_THO	0
T_REC_SLD	142
T_REC_ALL	534
T_NUM_TAP	365
T_NUM_BRK	15
T_NUM_HLD	12
T_NUM_SLD	142
T_NUM_ALL	534
T_JUDGE_TAP	380
T_JUDGE_HLD	34
T_JUDGE_SLD	142
T_JUDGE_ALL	556
TTM_EACHPAIRS	72
TTM_SCR_TAP	182500
TTM_SCR_BRK	39000
TTM_SCR_HLD	12000
TTM_SCR_SLD	213000
TTM_SCR_ALL	446500
TTM_SCR_S	431650
TTM_SCR_SS	445000
TTM_RAT_ACV	10033

