VERSION	0.00.00	1.03.00
FES_MODE	0
BPM_DEF	136.000	136.000	136.000	136.000
MET_DEF	4	4
RESOLUTION	384
CLK_DEF	384
COMPATIBLE_CODE	MA2

BPM	0	0	136.000
MET	0	0	4	4

HLD	7	0	2	192
TAP	7	0	4
TAP	7	96	4
TAP	7	192	4
TAP	7	288	4
TAP	7	336	3
HLD	8	0	2	192
TAP	8	0	4
TAP	8	96	4
TAP	8	192	4
TAP	8	288	4
TAP	8	336	3
HLD	9	0	2	192
TAP	9	0	4
TAP	9	96	4
TAP	9	192	4
TAP	9	288	4
TAP	9	336	3
HLD	10	0	2	192
TAP	10	0	4
TAP	10	96	4
TAP	10	192	4
TAP	10	288	4
TAP	10	336	3
TAP	11	0	2
TAP	11	0	4
TAP	11	96	4
TAP	11	96	5
TAP	11	192	2
TAP	11	192	4
TAP	11	288	4
TAP	11	288	5
TAP	11	336	3
TAP	12	0	2
TAP	12	0	4
TAP	12	96	4
TAP	12	96	5
TAP	12	192	2
TAP	12	192	4
TAP	12	288	4
TAP	12	288	5
TAP	12	336	3
TAP	13	0	2
TAP	13	0	4
TAP	13	96	4
TAP	13	96	5
TAP	13	192	2
TAP	13	192	4
TAP	13	288	4
TAP	13	288	5
TAP	13	336	3
TTP	14	0	0	C	1	M1
TAP	15	0	4
HLD	15	0	5	288
TAP	15	96	4
TAP	15	192	4
TAP	15	288	4
TAP	15	336	5
TAP	16	0	5
HLD	16	0	6	288
TAP	16	96	5
TAP	16	192	5
TAP	16	288	5
TAP	16	336	6
TAP	17	0	6
HLD	17	0	7	288
TAP	17	96	6
TAP	17	192	6
TAP	17	288	6
TAP	17	336	7
HLD	18	0	0	288
TAP	18	0	7
TAP	18	96	7
TAP	18	192	7
TAP	18	288	7
TAP	18	336	0
TAP	19	0	0
HLD	19	0	1	288
TAP	19	96	0
TAP	19	192	0
TAP	19	288	0
TAP	19	336	1
TAP	20	0	1
HLD	20	0	2	288
TAP	20	96	1
TAP	20	192	1
TAP	20	288	1
TAP	20	336	2
TAP	21	0	2
HLD	21	0	3	288
TAP	21	96	2
TAP	21	192	2
TAP	21	288	2
TAP	21	336	3
TAP	22	0	3
HLD	22	0	4	192
HLD	22	96	3	96
HLD	23	0	2	96
TAP	23	0	3
TAP	23	96	3
HLD	23	144	2	144
TAP	23	192	3
TAP	23	288	3
TAP	23	336	2
HLD	24	0	1	96
TAP	24	0	2
TAP	24	96	2
HLD	24	144	1	144
TAP	24	192	2
TAP	24	288	2
TAP	24	336	1
HLD	25	0	0	96
TAP	25	0	1
TAP	25	96	1
HLD	25	144	0	144
TAP	25	192	1
TAP	25	288	1
TAP	25	336	0
TAP	26	0	0
HLD	26	0	7	96
TAP	26	96	0
HLD	26	144	7	144
TAP	26	192	0
TAP	26	288	0
TAP	26	336	7
HLD	27	0	6	96
TAP	27	0	7
TAP	27	96	7
HLD	27	144	6	144
TAP	27	192	7
TAP	27	288	7
TAP	27	336	6
HLD	28	0	5	96
TAP	28	0	6
TAP	28	96	6
HLD	28	144	5	144
TAP	28	192	6
TAP	28	288	6
TAP	28	336	5
HLD	29	0	4	96
TAP	29	0	5
TAP	29	96	5
HLD	29	144	4	144
TAP	29	192	5
TAP	29	288	5
TAP	29	336	4
HLD	30	0	3	96
TAP	30	0	4
TAP	30	96	4
HLD	30	144	3	144
TAP	30	192	4
TAP	30	288	4
STR	31	0	5
SI_	31	0	5	96	96	0
STR	31	192	1
SI_	31	192	1	96	96	4
TAP	32	0	5
TAP	32	96	3
TAP	32	96	6
TAP	32	144	5
TAP	32	192	5
TAP	32	240	4
TAP	32	288	3
TAP	32	336	2
STR	33	0	2
SI_	33	0	2	96	96	7
TAP	33	0	3
STR	33	192	6
SI_	33	192	6	96	96	3
TAP	34	0	2
TAP	34	96	1
TAP	34	96	4
TAP	34	144	2
TAP	34	192	2
TAP	34	240	3
TAP	34	288	4
TAP	34	336	5
TAP	35	0	4
STR	35	0	5
SI_	35	0	5	96	96	0
STR	35	192	1
SI_	35	192	1	96	96	4
STR	36	0	5
SI_	36	0	5	96	96	2
STR	36	192	1
SI_	36	192	1	96	96	6
TAP	37	0	5
TAP	37	96	3
TAP	37	96	5
TAP	37	192	2
TAP	37	288	2
TAP	37	288	4
TAP	38	0	5
TAP	38	96	4
TAP	38	96	5
TAP	38	192	3
TAP	38	288	3
TAP	38	288	4
STR	39	0	2
SI_	39	0	2	96	96	7
STR	39	192	6
SI_	39	192	6	96	96	3
TAP	40	0	2
TAP	40	96	1
TAP	40	96	4
TAP	40	144	2
TAP	40	192	2
TAP	40	240	3
TAP	40	288	4
TAP	40	336	5
TAP	41	0	4
STR	41	0	5
SI_	41	0	5	96	96	0
STR	41	192	1
SI_	41	192	1	96	96	4
TAP	42	0	5
TAP	42	96	3
TAP	42	96	6
TAP	42	144	5
TAP	42	192	5
TAP	42	240	4
TAP	42	288	3
TAP	42	336	2
HLD	43	0	1	192
HLD	43	192	2	192
HLD	44	0	3	192
HLD	44	192	4	192
THO	45	0	0	384	C	0	M1
TTP	46	0	0	E	0	M1
BRK	46	288	0
XST	47	0	3
SI_	47	0	3	96	48	0
XST	47	0	7
SI_	47	0	7	96	48	4
XST	47	192	0
SI_	47	192	0	96	48	3
XST	47	192	4
SI_	47	192	4	96	48	7
XTP	48	0	3
XTP	48	0	7
TAP	48	96	1
TAP	48	96	5
TAP	48	192	4
TAP	48	240	3
TAP	48	288	2
TAP	48	288	6
XST	49	0	0
SCR	49	0	0	96	48	3
XST	49	0	4
SCR	49	0	4	96	48	7
XST	49	192	3
SCL	49	192	3	96	48	0
XST	49	192	7
SCL	49	192	7	96	48	4
XTP	50	0	0
XTP	50	0	4
TAP	50	96	2
TAP	50	96	6
TAP	50	192	3
TAP	50	240	4
TAP	50	288	1
TAP	50	288	5
XST	51	0	3
SI_	51	0	3	96	48	0
XST	51	0	7
SI_	51	0	7	96	48	4
XST	51	192	0
SI_	51	192	0	96	48	3
XST	51	192	4
SI_	51	192	4	96	48	7
XTP	52	0	3
XTP	52	0	7
TAP	52	96	1
TAP	52	96	5
TAP	52	144	6
TAP	52	192	0
TAP	52	240	0
TAP	52	288	7
XST	53	0	2
SI_	53	0	2	96	48	7
XST	53	0	6
SI_	53	0	6	96	48	3
XST	53	192	0
SI_	53	192	0	96	48	3
XST	53	192	4
SI_	53	192	4	96	48	7
XST	54	0	2
SI_	54	0	2	96	48	5
XST	54	0	6
SI_	54	0	6	96	48	1
XTP	54	192	3
XTP	54	192	7
XST	55	0	0
SI_	55	0	0	96	48	3
XST	55	0	4
SI_	55	0	4	96	48	7
XST	55	192	3
SI_	55	192	3	96	48	0
XST	55	192	7
SI_	55	192	7	96	48	4
XTP	56	0	0
XTP	56	0	4
TAP	56	96	2
TAP	56	96	6
TAP	56	192	3
TAP	56	240	4
TAP	56	288	1
TAP	56	288	5
XST	57	0	3
SCL	57	0	3	96	48	0
XST	57	0	7
SCL	57	0	7	96	48	4
XST	57	192	0
SCR	57	192	0	96	48	3
XST	57	192	4
SCR	57	192	4	96	48	7
XTP	58	0	3
XTP	58	0	7
TAP	58	96	1
TAP	58	96	5
TAP	58	192	4
TAP	58	240	3
TAP	58	288	2
TAP	58	288	6
XST	59	0	0
SI_	59	0	0	96	48	3
XST	59	0	4
SI_	59	0	4	96	48	7
XST	59	192	3
SI_	59	192	3	96	48	0
XST	59	192	7
SI_	59	192	7	96	48	4
XTP	60	0	0
XTP	60	0	4
TAP	60	96	2
TAP	60	96	6
TAP	60	144	1
TAP	60	192	7
TAP	60	240	7
TAP	60	288	0
XST	61	0	1
SI_	61	0	1	96	48	4
XST	61	0	5
SI_	61	0	5	96	48	0
XST	61	192	3
SI_	61	192	3	96	48	0
XST	61	192	7
SI_	61	192	7	96	48	4
XST	62	0	1
SI_	62	0	1	96	48	6
XST	62	0	5
SI_	62	0	5	96	48	2
XTP	62	192	0
XTP	62	192	4
XTP	62	288	2
XTP	62	288	6
XST	63	0	3
SCL	63	0	3	96	48	0
XST	63	0	7
SV_	63	0	7	96	48	4
XST	63	192	0
SV_	63	192	0	96	48	3
XST	63	192	4
SCR	63	192	4	96	48	7
XTP	64	0	3
XTP	64	0	7
TAP	64	96	1
TAP	64	96	5
TAP	64	192	4
TAP	64	240	3
TAP	64	288	2
TAP	64	288	6
XST	65	0	0
SCR	65	0	0	96	48	3
XST	65	0	4
SCR	65	0	4	96	48	7
XST	65	192	3
SCL	65	192	3	96	48	0
XST	65	192	7
SCL	65	192	7	96	48	4
XTP	66	0	0
XTP	66	0	4
TAP	66	96	2
TAP	66	96	6
TAP	66	192	3
TAP	66	240	4
TAP	66	288	1
TAP	66	288	5
XST	67	0	3
SV_	67	0	3	96	48	0
XST	67	0	7
SCL	67	0	7	96	48	4
XST	67	192	0
SCR	67	192	0	96	48	3
XST	67	192	4
SV_	67	192	4	96	48	7
XTP	68	0	3
XTP	68	0	7
TAP	68	96	1
TAP	68	96	5
TAP	68	144	6
TAP	68	192	0
TAP	68	240	0
TAP	68	288	7
TAP	68	336	7
HLD	69	0	3	384
THO	70	0	0	384	C	1	M1
TTP	71	0	0	E	0	M1
TAP	71	288	0
TAP	71	288	7
HLD	72	0	6	96
TAP	72	96	4
TAP	72	192	7
TAP	72	240	7
TAP	72	288	0
HLD	73	0	1	96
TAP	73	96	3
TAP	73	192	4
TAP	73	240	4
TAP	73	288	3
HLD	74	0	5	96
TAP	74	96	4
TAP	74	192	3
TAP	74	192	6
TAP	74	288	1
TAP	74	288	4
XHO	75	0	5	216
XHO	75	216	7	192
XHO	76	24	0	192
XHO	76	216	2	168
TAP	77	0	4
TAP	77	96	4
TAP	77	96	5
TAP	77	192	6
TAP	77	288	0
TAP	77	288	7
TAP	78	0	1
TAP	78	96	2
TAP	78	96	3
TAP	78	192	4
TAP	78	288	3
TAP	78	288	5
BRK	79	0	7

T_REC_TAP	251
T_REC_BRK	2
T_REC_XTP	24
T_REC_HLD	37
T_REC_XHO	4
T_REC_STR	12
T_REC_BST	0
T_REC_XST	48
T_REC_TTP	3
T_REC_THO	2
T_REC_SLD	60
T_REC_ALL	443
T_NUM_TAP	338
T_NUM_BRK	2
T_NUM_HLD	43
T_NUM_SLD	60
T_NUM_ALL	443
T_JUDGE_TAP	340
T_JUDGE_HLD	167
T_JUDGE_SLD	60
T_JUDGE_ALL	567
TTM_EACHPAIRS	101
TTM_SCR_TAP	169000
TTM_SCR_BRK	5200
TTM_SCR_HLD	43000
TTM_SCR_SLD	90000
TTM_SCR_ALL	307200
TTM_SCR_S	297800
TTM_SCR_SS	307000
TTM_RAT_ACV	10006

