VERSION	0.00.00	1.03.00
FES_MODE	0
BPM_DEF	136.000	136.000	136.000	136.000
MET_DEF	4	4
RESOLUTION	384
CLK_DEF	384
COMPATIBLE_CODE	MA2

BPM	0	0	136.000
MET	0	0	4	4

XTP	7	0	2
TAP	7	96	2
TAP	7	192	2
TAP	7	192	3
TAP	8	0	5
TAP	8	96	5
TAP	8	192	4
TAP	8	192	5
TAP	9	0	2
TAP	9	96	2
TAP	9	192	2
TAP	9	192	3
TAP	10	0	4
TAP	10	96	4
TAP	10	192	3
TAP	10	192	5
TAP	11	0	6
TAP	11	96	6
TAP	11	192	6
TAP	11	192	7
TAP	12	0	1
TAP	12	96	1
TAP	12	192	0
TAP	12	192	1
TAP	13	0	6
TAP	13	96	6
TAP	13	192	0
TAP	13	192	7
BST	14	0	0
SI_	14	0	0	96	192	4
BST	14	0	7
SI_	14	0	7	96	192	3
HLD	15	0	2	96
TAP	15	96	3
TAP	15	192	3
HLD	16	0	5	96
TAP	16	96	4
TAP	16	192	4
TAP	16	192	5
HLD	17	0	2	96
TAP	17	96	3
TAP	17	192	3
TAP	18	0	4
TAP	18	0	5
TAP	18	96	4
TAP	18	96	5
TAP	18	192	4
TAP	18	192	5
HLD	19	0	6	96
TAP	19	96	7
TAP	19	192	7
HLD	20	0	1	96
TAP	20	96	0
TAP	20	192	0
TAP	20	192	1
HLD	21	0	6	96
TAP	21	96	7
TAP	21	192	7
TAP	22	0	0
TAP	22	96	7
TAP	22	192	1
TAP	22	192	6
TAP	23	0	2
TAP	23	96	2
TAP	23	192	3
TAP	24	0	5
TAP	24	96	4
TAP	24	192	4
TAP	24	192	5
TAP	25	0	2
TAP	25	96	2
TAP	25	192	3
TAP	26	0	5
TAP	26	96	4
TAP	26	192	3
TAP	26	192	5
TAP	27	0	6
TAP	27	96	6
TAP	27	192	7
TAP	28	0	1
TAP	28	96	0
TAP	28	192	0
TAP	28	192	1
TAP	29	0	6
TAP	29	96	6
TAP	29	192	7
TAP	30	0	0
TAP	30	0	7
TAP	30	96	0
TAP	30	96	7
TAP	30	192	1
TAP	30	192	6
STR	31	0	2
SCL	31	0	2	96	480	5
STR	33	0	5
SCR	33	0	5	96	480	2
STR	35	0	2
SI_	35	0	2	96	192	5
STR	36	0	6
SI_	36	0	6	96	192	2
STR	37	0	1
SXL	37	0	1	96	480	5
TTP	39	0	4	B	0	L1
TTP	39	192	5	B	0	L1
TTP	40	0	6	B	0	L1
TTP	40	0	7	E	0	L1
TTP	41	0	0	B	0	L1
TTP	41	192	1	B	0	L1
TTP	42	0	2	B	0	L1
TTP	42	0	3	E	0	L1
TTP	43	0	3	E	0	L1
TTP	43	0	5	E	0	L1
TTP	43	192	2	B	0	L1
TTP	43	192	5	B	0	L1
TTP	44	0	1	B	0	L1
TTP	44	0	6	B	0	L1
TTP	44	192	1	E	0	L1
TTP	44	192	7	E	0	L1
THO	45	0	0	384	C	1	L1
TAP	47	0	1
TAP	47	96	0
TAP	47	96	1
TAP	47	192	6
TAP	47	288	6
TAP	47	288	7
TAP	48	0	1
TAP	48	96	1
TAP	48	192	0
TAP	48	192	2
TAP	49	0	2
TAP	49	96	2
TAP	49	96	3
TAP	49	192	5
TAP	49	288	4
TAP	49	288	5
TAP	50	0	3
TAP	50	96	3
TAP	50	192	2
TAP	50	192	4
TAP	51	0	6
TAP	51	96	6
TAP	51	96	7
TAP	51	192	1
TAP	51	288	0
TAP	51	288	1
TAP	52	0	6
TAP	52	96	6
TAP	52	192	5
TAP	52	192	7
TAP	53	0	5
TAP	53	96	4
TAP	53	96	5
TAP	53	192	2
TAP	53	288	2
TAP	53	288	3
TAP	54	0	4
TAP	54	96	3
TAP	54	96	4
TAP	54	192	2
TAP	54	192	5
TAP	55	0	1
XTP	55	96	0
XTP	55	96	1
TAP	55	192	1
XTP	55	288	0
XTP	55	288	1
TAP	56	0	1
XTP	56	96	0
XTP	56	96	1
XTP	56	192	0
XTP	56	192	1
TAP	57	0	6
XTP	57	96	6
XTP	57	96	7
TAP	57	192	6
XTP	57	288	6
XTP	57	288	7
TAP	58	0	6
TAP	58	96	6
TAP	58	192	5
TAP	58	192	7
TAP	59	0	5
XTP	59	96	4
XTP	59	96	5
TAP	59	192	5
XTP	59	288	4
XTP	59	288	5
TAP	60	0	5
XTP	60	96	4
XTP	60	96	5
XTP	60	192	4
XTP	60	192	5
TAP	61	0	2
XTP	61	96	2
XTP	61	96	3
TAP	61	192	2
XTP	61	288	2
XTP	61	288	3
TAP	62	0	2
XTP	62	96	3
XTP	62	96	4
XTP	62	192	2
XTP	62	192	5
TAP	63	0	1
TAP	63	96	1
TAP	63	192	0
TAP	63	288	0
TAP	64	0	7
TAP	64	96	7
TAP	64	192	0
TAP	64	192	6
TAP	65	0	5
TAP	65	96	5
TAP	65	192	4
TAP	65	288	4
TAP	66	0	3
TAP	66	96	3
TAP	66	192	2
TAP	66	192	4
TAP	67	0	1
TAP	67	96	1
TAP	67	192	0
TAP	67	288	0
TAP	68	0	7
TAP	68	96	7
TAP	68	192	0
TAP	68	192	6
TAP	69	0	5
TAP	69	96	5
TAP	69	192	4
TAP	69	288	4
TAP	70	0	3
TAP	70	0	4
TAP	70	96	3
TAP	70	96	4
TAP	70	192	2
TAP	70	192	5
TAP	71	0	1
TAP	71	96	1
TAP	71	192	0
TAP	71	192	1
TAP	72	0	6
TAP	72	96	6
TAP	72	192	6
TAP	72	192	7
TAP	73	0	1
TAP	73	96	1
TAP	73	192	0
TAP	73	192	1
TAP	74	0	0
TAP	74	0	7
TAP	74	96	0
TAP	74	96	7
TAP	74	192	1
TAP	74	192	6
STR	75	0	2
SCL	75	0	2	96	576	3
TAP	77	0	2
TAP	77	96	2
TAP	77	192	2
TAP	78	0	4
TAP	78	96	4
TAP	78	192	3
TAP	78	192	4
TAP	78	288	2
TAP	78	288	5

T_REC_TAP	198
T_REC_BRK	0
T_REC_XTP	29
T_REC_HLD	6
T_REC_XHO	0
T_REC_STR	6
T_REC_BST	2
T_REC_XST	0
T_REC_TTP	16
T_REC_THO	1
T_REC_SLD	8
T_REC_ALL	266
T_NUM_TAP	249
T_NUM_BRK	2
T_NUM_HLD	7
T_NUM_SLD	8
T_NUM_ALL	266
T_JUDGE_TAP	251
T_JUDGE_HLD	20
T_JUDGE_SLD	8
T_JUDGE_ALL	279
TTM_EACHPAIRS	62
TTM_SCR_TAP	124500
TTM_SCR_BRK	5200
TTM_SCR_HLD	7000
TTM_SCR_SLD	12000
TTM_SCR_ALL	148700
TTM_SCR_S	144050
TTM_SCR_SS	148500
TTM_RAT_ACV	10013

