VERSION	0.00.00	1.03.00
FES_MODE	0
BPM_DEF	136.000	136.000	136.000	136.000
MET_DEF	4	4
RESOLUTION	384
CLK_DEF	384
COMPATIBLE_CODE	MA2

BPM	0	0	136.000
MET	0	0	4	4

TAP	7	0	3
TAP	8	0	3
TAP	9	0	4
TAP	10	0	4
TAP	11	0	3
TAP	11	192	3
TAP	12	0	3
TAP	13	0	4
TAP	13	192	4
BRK	14	0	4
TAP	15	0	3
TAP	15	192	3
TAP	16	0	2
TAP	16	192	2
TAP	17	0	1
TAP	17	192	1
TAP	18	0	0
TAP	18	96	0
TAP	18	192	0
TAP	19	0	7
TAP	19	192	7
TAP	20	0	6
TAP	20	192	6
TAP	21	0	5
TAP	21	192	5
TAP	22	0	4
TAP	22	96	4
XTP	22	192	3
XTP	22	192	4
HLD	23	0	4	192
HLD	24	0	5	192
HLD	25	0	6	192
TAP	26	0	7
TAP	26	96	7
TAP	26	192	0
TAP	26	288	0
HLD	27	0	1	192
HLD	28	0	2	192
HLD	29	0	3	192
TAP	30	0	4
TAP	30	96	4
XTP	30	192	3
XTP	30	192	4
TTP	31	0	5	E	0	L1
TTP	32	0	5	B	0	L1
TTP	33	0	6	B	0	L1
TTP	34	0	7	B	0	L1
TTP	35	0	0	B	0	L1
TTP	36	0	1	B	0	L1
TTP	37	0	2	B	0	L1
TTP	38	0	3	B	0	L1
TTP	39	0	4	B	0	L1
TTP	40	0	4	E	0	L1
TTP	40	0	5	B	0	L1
TTP	41	0	3	B	0	L1
TTP	42	0	2	B	0	L1
TTP	42	0	4	E	0	L1
TTP	43	0	3	B	0	L1
TTP	43	0	4	B	0	L1
TTP	44	0	2	B	0	L1
TTP	44	0	5	B	0	L1
THO	45	0	0	384	C	0	L1
TAP	47	0	7
TAP	47	96	7
TAP	47	192	7
TAP	48	0	6
TAP	48	96	6
TAP	48	192	6
TAP	49	0	5
TAP	49	96	5
TAP	49	192	5
TAP	50	0	4
TAP	50	96	3
XTP	50	192	4
TAP	51	0	3
TAP	51	96	3
TAP	51	192	3
TAP	52	0	2
TAP	52	96	2
TAP	52	192	2
TAP	53	0	1
TAP	53	96	1
TAP	53	192	1
TAP	54	0	0
TAP	54	96	7
BRK	54	192	0
STR	55	0	0
SI_	55	0	0	96	288	3
STR	57	0	7
SI_	57	0	7	96	288	4
STR	59	0	1
SI_	59	0	1	96	288	4
STR	61	0	6
SI_	61	0	6	96	288	3
TAP	63	0	0
TAP	63	96	0
TAP	63	192	0
TAP	64	0	1
TAP	64	96	1
TAP	64	192	1
TAP	65	0	2
TAP	65	96	2
TAP	65	192	2
TAP	66	0	3
TAP	66	96	4
XTP	66	192	3
TAP	67	0	4
TAP	67	96	4
TAP	67	192	4
TAP	68	0	5
TAP	68	96	5
TAP	68	192	5
TAP	69	0	6
TAP	69	96	6
TAP	69	192	6
TAP	70	0	7
TAP	70	96	0
BRK	70	192	7
TAP	71	0	0
TAP	71	192	0
TAP	72	0	1
TAP	72	192	1
TAP	73	0	2
TAP	73	192	2
TAP	74	0	3
TAP	74	192	3
HLD	75	0	4	384
HLD	77	0	3	384
XTP	79	0	3
XTP	79	0	4

T_REC_TAP	84
T_REC_BRK	3
T_REC_XTP	8
T_REC_HLD	8
T_REC_XHO	0
T_REC_STR	4
T_REC_BST	0
T_REC_XST	0
T_REC_TTP	18
T_REC_THO	1
T_REC_SLD	4
T_REC_ALL	130
T_NUM_TAP	114
T_NUM_BRK	3
T_NUM_HLD	9
T_NUM_SLD	4
T_NUM_ALL	130
T_JUDGE_TAP	117
T_JUDGE_HLD	48
T_JUDGE_SLD	4
T_JUDGE_ALL	169
TTM_EACHPAIRS	3
TTM_SCR_TAP	57000
TTM_SCR_BRK	7800
TTM_SCR_HLD	9000
TTM_SCR_SLD	6000
TTM_SCR_ALL	79800
TTM_SCR_S	77150
TTM_SCR_SS	79500
TTM_RAT_ACV	10037

