VERSION	0.00.00	1.03.00
FES_MODE	0
BPM_DEF	164.000	164.000	164.000	164.000
MET_DEF	4	4
RESOLUTION	384
CLK_DEF	384
COMPATIBLE_CODE	MA2

BPM	0	0	164.000
MET	0	0	4	4

THO	2	192	0	192	C	1	M1
TTP	3	0	1	B	0	M1
TTP	3	0	6	B	0	M1
STR	3	288	4
SXL	3	288	4	96	288	0
HLD	5	0	1	72
HLD	5	72	3	72
HLD	5	144	2	72
HLD	5	216	4	72
STR	5	288	3
SXR	5	288	3	96	288	7
TAP	5	336	3
XTP	6	336	6
XST	7	0	0
SCR	7	0	0	96	288	7
XTP	7	0	5
THO	8	0	0	288	C	0	M1
TTP	9	0	2	E	0	M1
TTP	9	48	6	E	0	M1
TTP	9	96	0	E	0	M1
TTP	9	144	7	E	0	M1
TTP	9	192	4	E	0	M1
TTP	9	240	5	E	0	M1
TTP	9	288	2	E	0	M1
TTP	9	336	1	E	0	M1
HLD	10	0	6	72
HLD	10	72	4	72
HLD	10	144	5	72
HLD	10	216	3	72
TAP	10	288	4
TAP	10	336	4
TAP	11	0	3
TAP	11	0	4
TAP	11	96	3
TAP	11	96	4
TAP	11	192	3
TAP	11	192	4
TAP	11	240	2
TAP	11	288	3
TAP	11	288	4
TAP	11	336	5
TAP	12	0	3
TAP	12	0	4
TAP	12	48	3
TAP	12	96	3
TAP	12	96	4
TAP	12	144	5
TAP	12	192	3
TAP	12	192	4
TAP	12	240	2
TAP	12	288	3
TAP	12	288	4
HLD	13	0	1	72
HLD	13	72	2	72
HLD	13	144	3	72
HLD	13	216	4	72
STR	13	288	3
SXR	13	288	3	96	288	7
TAP	13	336	3
TAP	14	0	4
TAP	14	96	4
TAP	14	192	4
TAP	14	288	4
TAP	15	0	3
TAP	15	0	4
TAP	15	96	3
TAP	15	96	4
TAP	15	192	3
TAP	15	192	4
TAP	15	240	5
TAP	15	288	3
TAP	15	288	4
TAP	15	336	2
TAP	16	0	3
TAP	16	0	4
TAP	16	48	4
TAP	16	96	3
TAP	16	96	4
TAP	16	144	2
TAP	16	192	3
TAP	16	192	4
TAP	16	240	5
TAP	16	288	3
TAP	16	288	4
TAP	16	336	2
TAP	17	0	3
TAP	17	0	4
TAP	17	48	5
TAP	17	96	6
TAP	17	144	7
TAP	17	192	0
TAP	17	240	1
TAP	17	288	2
TAP	17	336	3
TAP	18	0	4
TAP	18	0	5
TAP	18	48	2
TAP	18	72	3
TAP	18	96	2
TAP	18	120	3
TAP	18	144	2
TAP	18	192	5
TAP	18	216	4
TAP	18	240	5
TAP	18	288	2
TAP	18	312	3
TAP	18	336	2
TAP	19	0	3
STR	19	0	4
SI_	19	0	4	96	192	0
BRK	20	0	2
BRK	20	0	6
TAP	20	96	0
TAP	20	96	4
TAP	20	192	2
TAP	20	216	3
TAP	20	264	1
TAP	20	264	4
TAP	20	336	5
TAP	20	360	4
TAP	21	0	5
TAP	21	24	4
TAP	21	48	5
TAP	21	96	6
TAP	21	96	7
TAP	21	144	0
TAP	21	192	2
TAP	21	216	3
TAP	21	240	1
TAP	21	288	5
TAP	21	312	4
TAP	21	336	6
XTP	22	0	3
XTP	22	0	7
TAP	22	96	0
TAP	22	96	4
TAP	22	192	5
TAP	22	216	4
TAP	22	264	3
TAP	22	264	6
TAP	22	336	2
TAP	22	360	3
TAP	23	0	2
TAP	23	24	3
TAP	23	48	2
TAP	23	96	0
TAP	23	96	1
TAP	23	144	7
TAP	23	192	5
TAP	23	216	4
TAP	23	240	6
TAP	23	288	2
TAP	23	312	3
TAP	23	336	1
XTP	24	0	0
XTP	24	0	4
TAP	24	96	3
TAP	24	96	7
TAP	24	192	2
TAP	24	216	3
TAP	24	264	1
TAP	24	264	4
TAP	24	336	5
TAP	24	360	4
TAP	25	0	5
TAP	25	24	4
TAP	25	48	5
TAP	25	96	6
TAP	25	96	7
TAP	25	144	0
TAP	25	192	2
TAP	25	216	3
TAP	25	240	1
TAP	25	288	5
TAP	25	312	4
TAP	25	336	6
XTP	26	0	3
XTP	26	0	7
TAP	26	96	0
TAP	26	96	4
TAP	26	192	2
TAP	26	216	3
TAP	26	264	1
TAP	26	264	4
TAP	26	336	3
TAP	26	360	4
TAP	27	0	3
TAP	27	48	5
TAP	27	72	4
TAP	27	120	3
TAP	27	120	6
TAP	27	168	1
TAP	27	168	4
TAP	27	216	0
TAP	27	216	7
XTP	27	264	1
XTP	27	264	6
BRK	27	288	1
BRK	27	288	6
HLD	28	0	2	144
TAP	28	48	3
TAP	28	96	4
TAP	28	144	5
TAP	28	192	3
TAP	28	192	6
TAP	28	240	3
TAP	28	240	6
TAP	28	288	2
TAP	28	336	1
HLD	28	336	5	192
TAP	29	48	4
TAP	29	96	3
TAP	29	144	2
TAP	29	192	1
TAP	29	192	4
TAP	29	240	1
TAP	29	288	0
TAP	29	288	7
STR	30	0	1
SI_	30	0	1	96	48	5
TAP	30	48	1
STR	30	96	7
SI_	30	96	7	96	48	3
TAP	30	144	7
TAP	30	192	2
HLD	30	240	2	96
STR	30	336	0
SCL	30	336	0	96	144	4
TAP	31	48	4
STR	31	96	4
SCL	31	96	4	96	96	0
TAP	31	192	0
TTP	31	288	0	C	0	M1
HLD	32	0	6	144
TAP	32	48	7
TAP	32	96	0
TAP	32	144	1
TAP	32	192	2
TAP	32	192	5
TAP	32	240	2
TAP	32	240	5
TAP	32	288	4
TAP	32	336	3
TAP	32	336	4
STR	33	48	0
SSL	33	48	0	96	144	4
TAP	33	96	7
TAP	33	144	6
TAP	33	240	5
TAP	33	288	5
TAP	34	0	3
TAP	34	48	3
TAP	34	96	5
TAP	34	144	4
TAP	34	192	3
HLD	34	240	2	96
STR	34	336	7
SI_	34	336	7	96	48	3
TAP	35	48	3
TAP	35	96	2
TAP	35	144	1
STR	35	192	0
SI_	35	192	0	96	48	4
TAP	35	288	0
TAP	35	288	7
HLD	36	0	5	144
TAP	36	48	4
TAP	36	96	3
TAP	36	144	2
TAP	36	192	1
TAP	36	192	4
TAP	36	240	1
TAP	36	240	4
TAP	36	288	5
HLD	36	336	2	192
TAP	36	336	6
TAP	37	48	3
TAP	37	96	4
TAP	37	144	5
TAP	37	192	3
TAP	37	192	6
TAP	37	240	6
TAP	37	288	0
TAP	37	288	7
STR	38	0	6
SI_	38	0	6	96	48	0
TAP	38	48	6
STR	38	96	2
SI_	38	96	2	96	48	4
TAP	38	144	2
TAP	38	192	6
HLD	38	240	6	96
STR	38	336	7
SCR	38	336	7	96	144	3
TAP	39	48	3
STR	39	96	3
SCR	39	96	3	96	96	7
TAP	39	192	7
TTP	39	288	0	C	0	M1
HLD	40	0	1	144
TAP	40	48	0
TAP	40	96	7
TAP	40	144	6
TAP	40	192	2
TAP	40	192	5
TAP	40	240	3
TAP	40	288	4
TAP	40	336	2
TAP	40	336	5
STR	41	48	4
SSL	41	48	4	96	144	0
TAP	41	96	3
TAP	41	144	2
TAP	41	240	1
TAP	41	288	1
TAP	42	0	7
TAP	42	48	7
TAP	42	96	1
TAP	42	144	0
TAP	42	192	7
HLD	42	240	6	96
TAP	42	336	5
STR	43	48	3
SF_	43	48	3	96	96	7
TAP	43	96	3
BRK	43	288	1
BRK	43	288	5
STR	44	0	6
SCL	44	0	6	96	48	3
TAP	44	96	2
STR	44	144	2
SCL	44	144	2	96	48	7
TTP	44	240	0	C	0	M1
TTP	44	288	3	B	0	M1
TTP	44	288	4	B	0	M1
STR	45	0	1
SCR	45	0	1	96	48	4
TAP	45	96	5
STR	45	144	5
SCR	45	144	5	96	48	0
TTP	45	240	0	C	0	M1
TTP	45	288	3	B	0	M1
TTP	45	288	4	B	0	M1
TAP	46	0	1
HLD	46	48	1	48
TAP	46	96	3
HLD	46	144	3	48
TAP	46	192	4
HLD	46	240	4	48
TAP	46	288	6
HLD	46	336	6	48
HLD	47	0	1	144
TAP	47	144	6
TAP	47	168	2
TAP	47	168	5
TAP	47	192	3
TAP	47	192	4
BRK	47	288	0
BRK	47	288	7
STR	48	0	6
SCL	48	0	6	96	48	3
TAP	48	96	2
STR	48	144	2
SCL	48	144	2	96	48	7
TAP	48	240	6
STR	48	288	6
SI_	48	288	6	96	48	2
HLD	49	0	1	96
TTP	49	96	0	B	0	M1
TTP	49	96	7	B	0	M1
TAP	49	192	2
STR	49	240	3
SCL	49	240	3	96	336	4
TAP	49	288	4
TAP	49	336	5
TAP	51	0	4
TAP	51	0	6
TAP	51	48	5
TAP	51	96	1
TAP	51	96	3
TAP	51	144	2
TAP	51	192	4
TAP	51	216	3
TAP	51	240	4
TAP	51	264	3
BRK	51	288	2
BRK	51	288	5
STR	52	0	1
SCR	52	0	1	96	48	4
TAP	52	96	5
STR	52	144	5
SCR	52	144	5	96	48	0
TTP	52	240	0	C	0	M1
TTP	52	288	3	B	0	M1
TTP	52	288	4	B	0	M1
STR	53	0	6
SCL	53	0	6	96	48	3
TAP	53	96	2
STR	53	144	2
SCL	53	144	2	96	48	7
TTP	53	240	0	C	0	M1
TTP	53	288	3	B	0	M1
TTP	53	288	4	B	0	M1
TAP	54	0	6
HLD	54	48	6	48
TAP	54	96	4
HLD	54	144	4	48
TAP	54	192	3
HLD	54	240	3	48
TAP	54	288	1
HLD	54	336	1	48
HLD	55	0	6	144
TAP	55	144	1
TAP	55	168	2
TAP	55	168	5
TAP	55	192	3
TAP	55	192	4
BRK	55	288	0
BRK	55	288	7
STR	56	0	1
SCR	56	0	1	96	48	4
TAP	56	96	5
STR	56	144	5
SCR	56	144	5	96	48	0
TAP	56	240	1
STR	56	288	1
SI_	56	288	1	96	48	5
HLD	57	0	6	96
TAP	57	96	7
STR	57	144	7
SI_	57	144	7	96	48	3
TAP	57	240	4
TAP	57	288	4
XHO	58	0	1	96
XHO	58	0	3	96
XHO	58	144	4	96
XHO	58	144	6	96
XTP	58	288	0
XTP	58	288	7
XTP	59	0	1
XTP	59	0	6
XST	59	48	3
SI_	59	48	3	96	48	7
XST	59	48	4
SI_	59	48	4	96	48	0
XTP	59	96	2
XTP	59	96	5
TTP	59	144	0	C	1	M1
STR	60	0	1
SI_	60	0	1	96	48	5
TAP	60	0	4
TAP	60	96	1
TAP	60	96	7
STR	60	144	6
SI_	60	144	6	96	48	2
TAP	60	240	1
TAP	60	240	6
STR	60	288	0
SF_	60	288	0	96	48	4
BRK	61	0	0
TAP	61	96	2
TAP	61	96	6
TAP	61	144	5
TAP	61	168	4
TAP	61	216	6
TAP	61	240	7
TAP	61	288	0
TAP	61	288	5
TAP	61	336	1
TAP	61	336	6
STR	62	0	2
SI_	62	0	2	96	48	0
STR	62	0	7
SI_	62	0	7	96	48	3
TAP	62	96	2
TAP	62	96	7
STR	62	192	0
SI_	62	192	0	96	48	4
STR	62	192	5
SI_	62	192	5	96	48	7
TAP	62	288	0
TAP	62	288	5
TAP	63	0	6
TAP	63	24	4
TAP	63	48	6
TAP	63	96	1
TAP	63	96	4
TAP	63	120	1
TAP	63	120	4
TAP	63	168	3
TAP	63	168	7
TAP	63	192	3
STR	63	192	7
SF_	63	192	7	96	48	3
TAP	63	288	7
STR	64	0	1
SI_	64	0	1	96	48	5
TAP	64	48	0
TAP	64	96	7
STR	64	144	6
SI_	64	144	6	96	48	2
TAP	64	192	5
TAP	64	240	4
STR	64	288	3
SXL	64	288	3	96	144	7
TAP	64	336	2
TAP	65	0	1
TAP	65	96	0
TAP	65	144	0
STR	65	240	1
SI_	65	240	1	96	48	3
STR	65	288	0
SI_	65	288	0	96	48	4
STR	65	336	1
SI_	65	336	1	96	48	5
STR	66	0	0
SI_	66	0	0	96	48	6
TAP	66	48	1
TAP	66	96	0
TAP	66	144	2
TAP	66	240	3
TAP	66	240	4
STR	66	288	3
SCR	66	288	3	96	48	6
STR	66	288	4
SCL	66	288	4	96	48	1
STR	67	0	3
SSR	67	0	3	96	48	7
STR	67	0	4
SSL	67	0	4	96	48	0
TAP	67	96	3
TAP	67	96	4
BRK	67	192	1
BRK	67	192	6
TAP	68	0	3
STR	68	0	6
SI_	68	0	6	96	48	2
TAP	68	96	0
TAP	68	96	6
STR	68	144	1
SI_	68	144	1	96	48	5
TAP	68	240	1
TAP	68	240	6
STR	68	288	7
SF_	68	288	7	96	48	3
BRK	69	0	7
TAP	69	96	1
TAP	69	96	5
TAP	69	144	2
TAP	69	168	3
TAP	69	216	1
TAP	69	240	0
TAP	69	288	2
TAP	69	288	7
TAP	69	336	1
TAP	69	336	6
STR	70	0	0
SI_	70	0	0	96	48	4
STR	70	0	5
SI_	70	0	5	96	48	7
TAP	70	96	0
TAP	70	96	5
STR	70	192	2
SI_	70	192	2	96	48	0
STR	70	192	7
SI_	70	192	7	96	48	3
TAP	70	288	2
TAP	70	288	7
TAP	71	0	1
TAP	71	24	3
TAP	71	48	1
TAP	71	96	3
TAP	71	96	6
TAP	71	120	3
TAP	71	120	6
TAP	71	168	0
TAP	71	168	4
STR	71	192	0
SF_	71	192	0	96	48	4
TAP	71	192	4
TAP	71	288	0
STR	72	0	6
SI_	72	0	6	96	48	2
TAP	72	48	7
TAP	72	96	0
STR	72	144	1
SI_	72	144	1	96	48	5
TAP	72	192	2
TAP	72	240	3
STR	72	288	4
SXR	72	288	4	96	144	0
TAP	72	336	5
TAP	73	0	6
TAP	73	96	7
TAP	73	144	7
STR	73	240	6
SI_	73	240	6	96	48	4
STR	73	288	7
SI_	73	288	7	96	48	3
STR	73	336	6
SI_	73	336	6	96	48	2
STR	74	0	7
SI_	74	0	7	96	48	1
TAP	74	48	6
TAP	74	96	7
TAP	74	144	5
TAP	74	240	0
TAP	74	240	4
STR	74	288	1
SI_	74	288	1	96	48	4
STR	74	288	5
SI_	74	288	5	96	48	0
XST	75	0	1
SI_	75	0	1	96	48	6
XST	75	0	5
SI_	75	0	5	96	48	2
XTP	75	96	1
XTP	75	96	5
BRK	75	192	0
BRK	75	192	4
STR	76	0	1
SI_	76	0	1	96	48	3
STR	76	0	4
SI_	76	0	4	96	48	0
TAP	76	96	1
TAP	76	96	4
STR	76	192	2
SI_	76	192	2	96	48	0
STR	76	192	7
SI_	76	192	7	96	48	3
TAP	76	288	2
TAP	76	288	7
STR	77	0	7
SI_	77	0	7	96	48	3
TAP	77	48	6
TAP	77	96	5
STR	77	144	4
SI_	77	144	4	96	48	0
TAP	77	192	3
BRK	77	240	1
BRK	77	288	1
STR	78	0	2
SI_	78	0	2	96	48	7
STR	78	0	6
SI_	78	0	6	96	48	3
TAP	78	96	2
TAP	78	96	6
TAP	78	192	1
TAP	78	192	5
TAP	78	288	0
TAP	78	288	7
HLD	78	336	1	96
TAP	78	336	6
HLD	79	48	2	48
HLD	79	96	3	48
HLD	79	144	4	48
STR	79	192	5
SI_	79	192	5	96	48	1
BRK	79	240	7
BRK	79	288	7
STR	80	0	3
SI_	80	0	3	96	48	7
STR	80	0	6
SI_	80	0	6	96	48	4
TAP	80	96	3
TAP	80	96	6
STR	80	192	0
SI_	80	192	0	96	48	4
STR	80	192	5
SI_	80	192	5	96	48	7
TAP	80	288	0
TAP	80	288	5
STR	81	0	0
SI_	81	0	0	96	48	4
TAP	81	48	1
TAP	81	96	2
STR	81	144	3
SI_	81	144	3	96	48	7
TAP	81	192	4
BRK	81	240	6
BRK	81	288	6
TAP	82	0	0
HLD	82	0	1	96
TTP	82	96	0	C	1	M1
HLD	82	192	6	96
TAP	82	192	7
TTP	82	288	0	C	1	M1
HLD	83	0	1	96
TAP	83	0	2
TTP	83	96	0	C	1	M1
TAP	83	192	5
HLD	83	192	6	96
TTP	83	288	0	C	1	M1
XTP	84	0	0
XTP	84	0	7
TAP	84	96	4
TAP	84	96	6
TAP	84	192	2
TAP	84	216	3
TAP	84	264	1
TAP	84	264	4
TAP	84	336	0
TAP	84	360	7
TAP	85	0	1
TAP	85	24	3
TAP	85	48	2
TAP	85	72	4
TAP	85	96	3
TAP	85	120	5
TAP	85	144	4
HLD	85	168	6	48
TAP	85	216	0
TAP	85	240	0
TAP	85	288	1
TAP	85	312	3
TAP	85	336	2
TAP	86	0	4
TAP	86	0	6
TAP	86	96	1
TAP	86	96	3
TAP	86	192	5
TAP	86	216	4
TAP	86	264	3
TAP	86	264	6
TAP	86	336	7
TAP	86	360	0
TAP	87	0	6
TAP	87	24	4
TAP	87	48	5
TAP	87	72	3
TAP	87	96	4
TAP	87	120	2
TAP	87	144	3
HLD	87	168	1	48
TAP	87	216	7
TAP	87	240	7
TAP	87	288	6
TAP	87	312	4
TAP	87	336	5
XTP	88	0	1
XTP	88	0	3
TAP	88	96	4
TAP	88	96	6
TAP	88	192	2
TAP	88	216	3
TAP	88	264	1
TAP	88	264	4
TAP	88	336	0
TAP	88	360	7
TAP	89	0	1
TAP	89	24	3
TAP	89	48	2
TAP	89	72	4
TAP	89	96	3
TAP	89	120	5
TAP	89	144	4
HLD	89	168	6	48
TAP	89	216	0
TAP	89	240	0
TAP	89	288	1
TAP	89	312	3
TAP	89	336	2
TAP	90	0	4
TAP	90	0	6
TAP	90	96	1
TAP	90	96	3
TAP	90	192	5
TAP	90	216	4
TAP	90	264	3
TAP	90	264	6
TAP	90	336	4
TAP	90	360	3
TAP	91	0	4
TAP	91	48	0
TAP	91	48	1
TAP	91	72	0
TAP	91	72	1
TAP	91	120	2
TAP	91	120	4
TAP	91	168	3
TAP	91	168	5
TAP	91	216	6
TAP	91	216	7
TAP	91	264	0
TAP	91	264	5
STR	91	288	0
SF_	91	288	0	96	48	4
TAP	91	288	5
TTP	92	0	0	C	1	M1

T_REC_TAP	480
T_REC_BRK	24
T_REC_XTP	22
T_REC_HLD	45
T_REC_XHO	4
T_REC_STR	85
T_REC_BST	0
T_REC_XST	5
T_REC_TTP	32
T_REC_THO	2
T_REC_SLD	90
T_REC_ALL	789
T_NUM_TAP	624
T_NUM_BRK	24
T_NUM_HLD	51
T_NUM_SLD	90
T_NUM_ALL	789
T_JUDGE_TAP	648
T_JUDGE_HLD	104
T_JUDGE_SLD	90
T_JUDGE_ALL	842
TTM_EACHPAIRS	146
TTM_SCR_TAP	312000
TTM_SCR_BRK	62400
TTM_SCR_HLD	51000
TTM_SCR_SLD	135000
TTM_SCR_ALL	560400
TTM_SCR_S	541300
TTM_SCR_SS	558000
TTM_RAT_ACV	10043

