VERSION	0.00.00	1.03.00
FES_MODE	0
BPM_DEF	164.000	164.000	164.000	164.000
MET_DEF	4	4
RESOLUTION	384
CLK_DEF	384
COMPATIBLE_CODE	MA2

BPM	0	0	164.000
MET	0	0	4	4

HLD	3	0	2	288
TAP	3	96	4
TAP	3	288	4
HLD	4	0	5	288
TAP	4	96	3
TAP	4	288	3
HLD	5	0	1	192
TAP	5	96	3
TAP	5	192	3
TAP	5	288	4
TAP	5	336	3
HLD	6	0	6	192
TAP	6	96	4
TAP	6	192	4
TAP	6	288	3
TAP	6	336	4
HLD	7	0	2	288
TAP	7	96	3
TAP	7	288	1
HLD	8	0	5	288
TAP	8	96	4
TAP	8	288	6
TAP	9	0	4
TAP	9	0	5
TAP	9	96	2
TAP	9	96	3
TAP	9	192	4
TAP	9	192	6
TAP	9	288	1
TAP	9	288	3
TAP	10	0	5
TAP	10	0	7
TAP	10	96	0
TAP	10	96	2
TAP	10	192	0
TAP	10	192	7
BRK	10	288	1
BRK	10	288	6
HLD	11	0	2	96
TAP	11	0	3
TAP	11	96	4
TAP	11	192	4
HLD	11	192	5	96
TAP	11	288	3
TAP	12	0	2
TAP	12	96	1
TAP	12	96	3
TAP	12	192	5
TAP	12	288	4
TAP	12	288	6
TAP	13	0	4
HLD	13	0	5	96
TAP	13	96	3
HLD	13	192	2	96
TAP	13	192	3
TAP	13	288	4
TAP	14	0	5
TAP	14	96	4
TAP	14	96	6
TAP	14	192	2
XTP	14	288	1
XTP	14	288	3
TAP	15	0	4
TAP	15	48	4
TAP	15	96	3
TAP	15	96	5
TAP	15	192	2
TAP	15	240	2
TAP	15	288	1
TAP	15	288	3
TAP	16	0	6
TAP	16	48	6
TAP	16	96	5
TAP	16	96	7
TAP	16	192	0
TAP	16	240	0
TAP	16	288	1
TAP	16	288	7
STR	17	0	0
SXL	17	0	0	96	192	3
STR	17	0	4
SXL	17	0	4	96	192	7
THO	18	0	0	384	C	1	M1
TTP	18	0	1	B	0	M1
TTP	18	0	2	B	0	M1
TTP	18	0	2	E	0	M1
TTP	18	0	5	B	0	M1
TTP	18	0	6	B	0	M1
TTP	18	0	6	E	0	M1
TAP	20	0	0
TAP	20	96	1
TAP	20	96	7
TAP	20	192	0
TAP	20	240	7
TAP	20	288	0
TAP	20	288	6
HLD	21	0	1	96
HLD	21	96	2	96
TAP	21	192	3
TAP	21	288	2
TAP	21	288	4
TAP	22	0	7
TAP	22	96	0
TAP	22	96	6
TAP	22	192	7
TAP	22	240	0
TAP	22	288	1
TAP	22	288	7
TAP	23	0	4
TAP	23	0	5
TAP	23	96	2
TAP	23	96	3
TAP	23	192	0
TAP	23	192	1
TAP	23	288	2
TAP	23	288	7
TAP	24	0	7
TAP	24	96	0
TAP	24	96	6
TAP	24	192	7
TAP	24	240	0
TAP	24	288	1
TAP	24	288	7
HLD	25	0	6	96
HLD	25	96	5	96
TAP	25	192	4
TAP	25	288	3
TAP	25	288	5
TAP	26	0	0
TAP	26	96	1
TAP	26	96	7
TAP	26	192	0
TAP	26	240	7
TAP	26	288	0
TAP	26	288	6
STR	27	0	1
SI_	27	0	1	96	96	5
XTP	27	288	0
XTP	27	288	7
HLD	28	0	0	96
TAP	28	96	1
HLD	28	192	2	96
HLD	28	192	7	96
HLD	29	0	3	96
TAP	29	96	2
HLD	29	192	1	96
HLD	29	192	4	96
TAP	30	0	2
TAP	30	96	1
TAP	30	96	3
TAP	30	192	5
TAP	30	288	4
TAP	30	288	6
TAP	31	0	3
TAP	31	48	4
TAP	31	96	3
TAP	31	192	2
TAP	31	192	3
TAP	31	288	1
TAP	31	288	4
HLD	32	0	7	96
TAP	32	96	6
HLD	32	192	0	96
HLD	32	192	5	96
HLD	33	0	4	96
TAP	33	96	5
HLD	33	192	3	96
HLD	33	192	6	96
TAP	34	0	4
TAP	34	96	3
TAP	34	96	5
TAP	34	192	3
TAP	34	288	2
TAP	34	288	4
STR	35	0	2
SI_	35	0	2	96	96	6
STR	35	0	3
SI_	35	0	3	96	96	7
XTP	35	288	0
XTP	35	288	5
TAP	36	0	6
TAP	36	48	6
HLD	36	96	5	96
TAP	36	96	7
HLD	36	192	4	96
TAP	36	288	3
TAP	37	0	1
TAP	37	48	1
TAP	37	96	0
HLD	37	96	2	96
HLD	37	192	3	96
TAP	37	288	4
TAP	38	0	5
TAP	38	48	4
TAP	38	96	6
TAP	38	192	2
TAP	38	240	3
TAP	38	288	1
TAP	39	0	4
TAP	39	48	3
TAP	39	96	2
TAP	39	96	5
TAP	39	192	6
TAP	39	192	7
TAP	39	288	0
TAP	39	288	5
TAP	40	0	1
TAP	40	48	1
TAP	40	96	0
HLD	40	96	2	96
HLD	40	192	3	96
TAP	40	288	4
TAP	41	0	6
TAP	41	48	6
HLD	41	96	5	96
TAP	41	96	7
HLD	41	192	4	96
TAP	41	288	3
TAP	42	0	2
TAP	42	48	3
TAP	42	96	1
TAP	42	96	4
TAP	42	192	5
TAP	42	240	4
TAP	42	288	3
TAP	42	288	6
STR	43	0	4
SI_	43	0	4	96	96	0
STR	43	0	5
SI_	43	0	5	96	96	1
BRK	43	288	2
BRK	43	288	7
TAP	44	0	3
HLD	44	0	6	192
TTP	44	192	4	B	0	M1
TTP	44	288	0	C	0	M1
HLD	45	0	1	192
TAP	45	0	4
TTP	45	192	3	B	0	M1
TTP	45	288	0	C	0	M1
TAP	46	0	2
HLD	46	0	5	192
TAP	46	96	6
HLD	46	192	6	192
TAP	46	288	7
STR	47	0	7
SCL	47	0	7	96	96	3
TAP	47	192	0
TAP	47	288	1
TAP	47	288	7
HLD	48	0	1	192
TAP	48	0	4
TTP	48	192	3	B	0	M1
TTP	48	288	0	C	0	M1
TAP	49	0	3
HLD	49	0	6	192
TTP	49	192	4	B	0	M1
TTP	49	288	0	C	0	M1
STR	50	0	2
SCL	50	0	2	96	288	5
STR	50	0	4
SUR	50	0	4	96	288	3
TAP	51	192	4
TAP	51	288	3
TAP	51	288	5
HLD	52	0	2	192
TAP	52	0	4
TTP	52	192	0	C	0	M1
TTP	52	288	1	E	0	M1
TTP	52	288	5	E	0	M1
TAP	53	0	3
HLD	53	0	5	192
TTP	53	192	0	C	0	M1
TTP	53	288	3	E	0	M1
TTP	53	288	7	E	0	M1
HLD	54	0	2	192
TAP	54	0	5
TAP	54	96	1
HLD	54	192	1	192
TAP	54	288	0
STR	55	0	0
SCR	55	0	0	96	96	4
TAP	55	192	7
TAP	55	288	0
TAP	55	288	6
TAP	56	0	3
HLD	56	0	5	192
TTP	56	192	0	C	0	M1
TTP	56	288	2	E	0	M1
TTP	56	288	7	E	0	M1
HLD	57	0	2	192
TAP	57	0	4
TTP	57	192	0	C	0	M1
TTP	57	288	1	E	0	M1
TTP	57	288	6	E	0	M1
XHO	58	0	7	96
XHO	58	144	0	96
XHO	58	144	6	96
XTP	58	288	1
XTP	58	288	5
XTP	59	0	3
XTP	59	48	4
XTP	59	96	2
XTP	59	144	5
BRK	59	288	1
BRK	59	288	6
HLD	60	0	1	96
TAP	60	0	7
TAP	60	96	2
HLD	60	144	2	96
TAP	60	240	3
STR	60	288	3
SXR	60	288	3	96	192	4
TAP	61	0	4
TAP	61	240	7
TAP	61	288	7
TAP	62	0	3
HLD	62	0	6	96
TAP	62	96	7
HLD	62	192	1	96
TAP	62	192	4
TAP	62	288	0
STR	63	0	7
SI_	63	0	7	96	96	3
TAP	63	96	1
STR	63	192	0
SI_	63	192	0	96	96	4
TAP	63	288	6
HLD	64	0	7	96
TAP	64	96	6
HLD	64	144	6	96
TAP	64	240	5
TAP	64	288	5
HLD	65	0	0	96
TAP	65	96	1
HLD	65	144	1	96
TAP	65	240	2
TAP	65	288	2
TAP	66	0	2
TAP	66	48	3
TAP	66	96	1
TAP	66	96	4
TAP	66	192	6
TAP	66	240	7
TAP	66	288	0
TAP	66	288	5
TAP	67	0	3
TAP	67	0	4
TAP	67	96	2
TAP	67	96	5
BRK	67	192	1
BRK	67	192	6
TAP	68	0	0
HLD	68	0	6	96
TAP	68	96	5
HLD	68	144	5	96
TAP	68	240	4
STR	68	288	4
SXL	68	288	4	96	192	3
TAP	69	0	3
TAP	69	240	0
TAP	69	288	0
HLD	70	0	1	96
TAP	70	0	4
TAP	70	96	0
TAP	70	192	3
HLD	70	192	6	96
TAP	70	288	7
STR	71	0	1
SI_	71	0	1	96	96	5
TAP	71	96	7
STR	71	192	6
SI_	71	192	6	96	96	2
TAP	71	288	0
HLD	72	0	0	96
TAP	72	96	1
HLD	72	144	1	96
TAP	72	240	2
TAP	72	288	2
TAP	72	288	3
HLD	73	0	7	96
TAP	73	96	6
HLD	73	144	6	96
TAP	73	240	5
TAP	73	288	4
TAP	73	288	5
TAP	74	0	5
TAP	74	48	4
TAP	74	96	6
TAP	74	192	1
TAP	74	240	0
TAP	74	288	2
XTP	75	0	3
XTP	75	0	4
TAP	75	48	3
TAP	75	48	4
XTP	75	96	2
XTP	75	96	5
TAP	75	144	2
TAP	75	144	5
BRK	75	192	1
BRK	75	192	6
TAP	76	0	3
TAP	76	0	4
STR	76	96	1
SI_	76	96	1	96	48	5
STR	76	96	2
SI_	76	96	2	96	48	7
TAP	77	0	3
TAP	77	0	4
STR	77	96	5
SI_	77	96	5	96	48	0
STR	77	96	6
SI_	77	96	6	96	48	2
TAP	78	0	3
TAP	78	0	5
TAP	78	96	6
TAP	78	96	7
TAP	78	192	2
TAP	78	192	4
TAP	78	288	0
TAP	78	288	1
TAP	79	0	2
TAP	79	48	3
TAP	79	96	2
HLD	79	192	1	96
HLD	79	192	4	96
TAP	80	0	0
TAP	80	0	6
TAP	80	96	4
TAP	80	96	5
HLD	80	192	2	96
TAP	80	240	3
TAP	80	288	3
TAP	81	0	1
TAP	81	0	7
TAP	81	96	2
TAP	81	96	3
HLD	81	192	1	96
HLD	81	192	4	96
STR	82	0	0
SI_	82	0	0	96	48	3
STR	82	0	4
SI_	82	0	4	96	48	7
STR	82	192	3
SI_	82	192	3	96	48	0
STR	82	192	7
SI_	82	192	7	96	48	4
STR	83	0	0
SCR	83	0	0	96	48	3
STR	83	0	4
SCR	83	0	4	96	48	7
TTP	83	192	0	C	1	M1
TTP	83	192	1	B	0	M1
TTP	83	192	2	B	0	M1
TTP	83	192	5	B	0	M1
TTP	83	192	6	B	0	M1
TAP	84	0	0
TAP	84	96	1
TAP	84	96	7
TAP	84	192	7
TAP	84	288	0
TAP	84	288	6
TAP	85	0	5
TAP	85	48	5
TAP	85	96	3
TAP	85	144	4
TAP	85	192	2
TAP	85	240	2
TAP	85	288	1
TAP	85	288	3
TAP	86	0	7
TAP	86	96	0
TAP	86	96	6
TAP	86	192	0
TAP	86	288	1
TAP	86	288	7
TAP	87	0	2
TAP	87	48	5
TAP	87	96	3
TAP	87	144	4
TAP	87	192	3
TAP	87	192	4
TAP	87	288	1
TAP	87	288	6
TAP	88	0	6
TAP	88	0	7
TAP	88	96	0
TAP	88	96	5
TAP	88	192	0
TAP	88	192	1
TAP	88	288	2
TAP	88	288	7
TAP	89	0	2
TAP	89	48	3
TAP	89	96	1
TAP	89	144	4
TAP	89	192	0
TAP	89	240	5
TAP	89	288	6
TAP	89	288	7
STR	90	0	1
SI_	90	0	1	96	48	5
TAP	90	96	7
STR	90	192	6
SI_	90	192	6	96	48	2
TAP	90	288	0
TAP	91	0	1
TAP	91	48	0
TAP	91	96	2
TAP	91	144	7
TAP	91	192	3
TAP	91	240	6
TAP	91	288	4
TAP	91	288	5
TTP	92	0	0	C	1	M1
TTP	92	0	1	B	0	M1
TTP	92	0	2	B	0	M1
TTP	92	0	5	B	0	M1
TTP	92	0	6	B	0	M1

T_REC_TAP	329
T_REC_BRK	10
T_REC_XTP	16
T_REC_HLD	67
T_REC_XHO	3
T_REC_STR	29
T_REC_BST	0
T_REC_XST	0
T_REC_TTP	36
T_REC_THO	1
T_REC_SLD	29
T_REC_ALL	520
T_NUM_TAP	410
T_NUM_BRK	10
T_NUM_HLD	71
T_NUM_SLD	29
T_NUM_ALL	520
T_JUDGE_TAP	420
T_JUDGE_HLD	192
T_JUDGE_SLD	29
T_JUDGE_ALL	641
TTM_EACHPAIRS	124
TTM_SCR_TAP	205000
TTM_SCR_BRK	26000
TTM_SCR_HLD	71000
TTM_SCR_SLD	43500
TTM_SCR_ALL	345500
TTM_SCR_S	334200
TTM_SCR_SS	344500
TTM_RAT_ACV	10029

