VERSION	0.00.00	1.03.00
FES_MODE	0
BPM_DEF	164.000	164.000	164.000	164.000
MET_DEF	4	4
RESOLUTION	384
CLK_DEF	384
COMPATIBLE_CODE	MA2

BPM	0	0	164.000
MET	0	0	4	4

XST	3	0	0
SCR	3	0	0	96	480	5
TAP	5	0	6
TAP	5	96	6
TAP	5	192	6
TAP	6	0	1
TAP	6	96	1
TAP	6	192	1
STR	7	0	7
SCL	7	0	7	96	480	2
TAP	9	0	1
TAP	9	96	1
TAP	9	192	1
TAP	10	0	6
TAP	10	96	6
TAP	10	192	6
TAP	11	0	1
TAP	11	192	0
TAP	11	192	1
TAP	12	0	6
TAP	12	192	6
TAP	12	192	7
TAP	13	0	1
TAP	13	96	1
TAP	13	192	1
TAP	14	0	7
TAP	14	96	7
TAP	14	192	7
TAP	15	0	6
TAP	15	96	6
TAP	15	192	6
TAP	15	192	7
TAP	16	0	1
TAP	16	96	1
TAP	16	192	0
TAP	16	192	1
TAP	17	0	6
TAP	17	96	6
TAP	17	192	6
TAP	17	192	7
TAP	18	0	1
TAP	18	96	1
TAP	18	192	0
TAP	18	288	0
STR	19	0	0
SI_	19	0	0	96	144	4
TAP	19	0	7
TAP	20	0	5
TAP	20	96	5
TAP	20	192	4
TAP	20	288	4
TAP	21	0	3
TAP	21	96	3
TAP	21	192	2
TAP	21	192	4
TAP	22	0	1
TAP	22	96	1
TAP	22	192	0
TAP	22	288	0
TAP	23	0	7
TAP	23	96	7
TAP	23	192	0
TAP	23	192	6
TAP	24	0	5
TAP	24	96	5
TAP	24	192	4
TAP	24	288	4
TAP	25	0	3
TAP	25	96	3
TAP	25	192	2
TAP	25	192	4
TAP	26	0	1
TAP	26	96	1
TAP	26	192	0
TAP	26	288	0
TAP	27	0	0
TAP	27	0	7
TAP	27	96	0
TAP	27	96	7
BRK	27	192	1
BRK	27	192	6
HLD	28	0	2	192
TAP	28	192	3
HLD	29	0	5	192
TAP	29	192	4
HLD	30	0	2	192
TAP	30	192	3
HLD	31	0	4	96
HLD	31	0	5	96
TAP	31	192	4
TAP	31	192	5
TAP	32	0	2
TAP	32	96	2
TAP	32	192	3
TAP	33	0	5
TAP	33	96	5
TAP	33	192	4
TAP	34	0	2
TAP	34	96	2
TAP	34	192	3
TAP	35	0	4
TAP	35	96	4
TAP	35	192	3
TAP	35	192	5
HLD	36	0	6	192
TAP	36	192	7
HLD	37	0	1	192
TAP	37	192	0
HLD	38	0	6	192
TAP	38	192	7
HLD	39	0	0	96
HLD	39	0	1	96
TAP	39	192	0
TAP	39	192	1
TAP	40	0	6
TAP	40	96	6
TAP	40	192	7
TAP	41	0	1
TAP	41	96	1
TAP	41	192	0
TAP	42	0	6
TAP	42	96	6
TAP	42	192	7
TAP	43	0	0
TAP	43	96	7
BRK	43	192	1
BRK	43	192	6
STR	44	0	2
SCL	44	0	2	96	144	7
STR	45	0	6
SI_	45	0	6	96	144	2
STR	46	0	1
SI_	46	0	1	96	144	5
STR	47	0	6
SCL	47	0	6	96	144	3
STR	48	0	2
SI_	48	0	2	96	144	5
STR	49	0	6
SI_	49	0	6	96	144	1
TAP	50	0	0
TAP	50	96	0
TAP	50	192	0
TAP	51	0	5
TAP	51	96	5
TAP	51	192	5
STR	52	0	6
SCL	52	0	6	96	144	3
STR	53	0	2
SI_	53	0	2	96	144	7
STR	54	0	6
SI_	54	0	6	96	144	3
STR	55	0	2
SCL	55	0	2	96	144	7
STR	56	0	6
SI_	56	0	6	96	144	1
STR	57	0	2
SI_	57	0	2	96	144	5
XTP	58	0	5
XTP	58	96	5
XTP	58	192	4
XTP	58	192	5
TAP	59	0	3
TAP	59	0	4
TAP	59	96	3
TAP	59	96	4
BRK	59	192	2
BRK	59	192	5
TAP	60	0	1
TAP	60	96	1
TAP	60	192	0
TAP	60	192	1
TAP	60	288	0
TAP	60	288	1
TAP	61	0	2
TAP	61	96	3
TAP	61	192	2
TAP	61	192	4
TAP	62	0	5
TAP	62	96	6
TAP	62	192	7
TAP	62	288	0
STR	63	0	0
SI_	63	0	0	96	144	5
STR	63	0	1
SI_	63	0	1	96	144	4
XHO	64	0	5	192
TAP	64	96	4
TAP	64	192	4
HLD	65	0	2	192
TAP	65	96	3
TAP	65	192	3
TAP	66	0	5
TAP	66	96	5
TAP	66	192	6
TAP	66	288	6
TAP	67	0	7
TAP	67	96	0
TAP	67	192	1
TAP	67	192	6
TAP	68	0	6
TAP	68	96	6
TAP	68	192	6
TAP	68	192	7
TAP	68	288	6
TAP	68	288	7
TAP	69	0	5
TAP	69	96	4
TAP	69	192	3
TAP	69	192	5
TAP	70	0	2
TAP	70	96	1
TAP	70	192	0
TAP	70	288	7
STR	71	0	6
SI_	71	0	6	96	144	3
STR	71	0	7
SI_	71	0	7	96	144	2
XHO	72	0	2	192
TAP	72	96	3
TAP	72	192	3
HLD	73	0	5	192
TAP	73	96	4
TAP	73	192	4
TAP	74	0	2
TAP	74	96	2
TAP	74	192	1
TAP	74	288	1
TAP	75	0	0
TAP	75	0	7
TAP	75	96	0
TAP	75	96	7
BRK	75	192	1
BRK	75	192	6
TTP	76	0	6	B	0	L1
TTP	76	0	7	E	0	L1
TTP	76	192	5	B	0	L1
TTP	76	192	5	E	0	L1
TTP	77	0	2	B	0	L1
TTP	77	96	3	B	0	L1
TTP	77	192	4	E	0	L1
TTP	78	0	1	B	0	L1
TTP	78	0	1	E	0	L1
TTP	78	192	2	B	0	L1
TTP	78	192	3	E	0	L1
TTP	79	0	5	B	0	L1
TTP	79	96	4	B	0	L1
TTP	79	192	4	E	0	L1
TTP	80	0	6	B	0	L1
TTP	80	0	7	E	0	L1
TTP	80	192	5	B	0	L1
TTP	80	192	5	E	0	L1
TTP	81	0	2	B	0	L1
TTP	81	96	3	B	0	L1
TTP	81	192	4	E	0	L1
TTP	82	0	3	E	0	L1
TTP	82	0	5	E	0	L1
TTP	82	192	2	B	0	L1
TTP	82	192	5	B	0	L1
TTP	83	0	1	B	0	L1
TTP	83	0	6	B	0	L1
TAP	84	0	1
TAP	84	96	1
TAP	84	192	0
TAP	84	288	0
TAP	85	0	7
TAP	85	96	7
TAP	85	192	0
TAP	85	192	6
TAP	86	0	6
TAP	86	96	6
TAP	86	192	7
TAP	86	288	7
TAP	87	0	0
TAP	87	96	0
TAP	87	192	1
TAP	87	192	7
TAP	88	0	2
TAP	88	96	2
TAP	88	192	3
TAP	88	288	3
TAP	89	0	4
TAP	89	96	4
TAP	89	192	3
TAP	89	192	5
TAP	90	0	5
TAP	90	96	5
TAP	90	192	4
TAP	90	288	4
TAP	91	0	3
TAP	91	0	4
TAP	91	96	3
TAP	91	96	4
TAP	91	192	2
TAP	91	192	5
TAP	91	288	2
TAP	91	288	5
TAP	92	0	2
TAP	92	0	5

T_REC_TAP	207
T_REC_BRK	8
T_REC_XTP	4
T_REC_HLD	12
T_REC_XHO	2
T_REC_STR	18
T_REC_BST	0
T_REC_XST	1
T_REC_TTP	27
T_REC_THO	0
T_REC_SLD	19
T_REC_ALL	298
T_NUM_TAP	257
T_NUM_BRK	8
T_NUM_HLD	14
T_NUM_SLD	19
T_NUM_ALL	298
T_JUDGE_TAP	265
T_JUDGE_HLD	48
T_JUDGE_SLD	19
T_JUDGE_ALL	332
TTM_EACHPAIRS	42
TTM_SCR_TAP	128500
TTM_SCR_BRK	20800
TTM_SCR_HLD	14000
TTM_SCR_SLD	28500
TTM_SCR_ALL	191800
TTM_SCR_S	185300
TTM_SCR_SS	191000
TTM_RAT_ACV	10041

