VERSION	0.00.00	1.03.00
FES_MODE	0
BPM_DEF	164.000	164.000	164.000	164.000
MET_DEF	4	4
RESOLUTION	384
CLK_DEF	384
COMPATIBLE_CODE	MA2

BPM	0	0	164.000
MET	0	0	4	4

TAP	3	0	3
TAP	3	0	4
TAP	4	0	3
TAP	4	0	4
HLD	5	0	3	192
HLD	6	0	4	192
TAP	7	0	3
TAP	7	0	4
TAP	8	0	3
TAP	8	0	4
HLD	9	0	3	192
HLD	10	0	4	192
TAP	11	0	3
TAP	11	192	3
TAP	12	0	3
TAP	13	0	2
TAP	13	192	2
TAP	14	0	2
TAP	15	0	1
TAP	15	192	1
TAP	16	0	1
TAP	17	0	0
TAP	17	192	0
TAP	18	0	0
HLD	19	0	0	192
HLD	19	0	7	192
TAP	20	0	7
TAP	20	192	7
HLD	21	0	6	192
TAP	22	0	5
TAP	22	192	5
TAP	23	0	3
TAP	23	0	4
XTP	23	192	3
XTP	23	192	4
TAP	24	0	3
TAP	24	192	3
HLD	25	0	2	192
TAP	26	0	1
TAP	26	192	1
BRK	27	0	0
BRK	27	0	7
TAP	28	0	0
TAP	28	192	0
TAP	29	0	7
TAP	29	192	7
STR	30	0	0
SI_	30	0	0	96	288	4
TAP	32	0	7
TAP	32	192	7
TAP	33	0	0
TAP	33	192	0
STR	34	0	7
SI_	34	0	7	96	288	3
TAP	36	0	2
TAP	36	192	2
TAP	37	0	3
TAP	37	192	3
HLD	38	0	4	192
TAP	39	0	4
TAP	39	0	5
XTP	39	192	4
XTP	39	192	5
TAP	40	0	5
TAP	40	192	5
TAP	41	0	4
TAP	41	192	4
HLD	42	0	3	192
XTP	43	0	2
XTP	43	0	3
TTP	44	0	1	B	0	L1
TTP	45	0	2	B	0	L1
TTP	46	0	3	B	0	L1
TTP	47	0	2	B	0	L1
TTP	47	0	4	B	0	L1
TTP	48	0	5	B	0	L1
TTP	49	0	6	B	0	L1
HLD	50	0	0	384
HLD	50	0	7	384
TTP	52	0	6	B	0	L1
TTP	53	0	5	B	0	L1
TTP	54	0	4	B	0	L1
TTP	55	0	3	B	0	L1
TTP	55	0	5	B	0	L1
TTP	56	0	2	B	0	L1
TTP	57	0	1	B	0	L1
THO	58	0	0	384	C	1	L1
TAP	60	0	0
TAP	60	192	0
HLD	61	0	0	192
TAP	62	0	1
TAP	62	96	1
TAP	62	192	1
HLD	63	0	1	192
TAP	64	0	2
TAP	64	192	2
TAP	65	0	3
TAP	65	192	3
TAP	66	0	4
TAP	66	96	4
TAP	66	192	4
TAP	67	0	3
TAP	67	96	3
BRK	67	192	3
BRK	67	192	4
TAP	68	0	4
TAP	68	192	4
HLD	69	0	4	192
TAP	70	0	5
TAP	70	96	5
TAP	70	192	5
HLD	71	0	5	192
TAP	72	0	6
TAP	72	192	6
TAP	73	0	7
TAP	73	192	7
TAP	74	0	0
TAP	74	96	0
TAP	74	192	0
TAP	75	0	0
TAP	75	0	7
TAP	75	96	0
TAP	75	96	7
BRK	75	192	0
BRK	75	192	7
STR	76	0	0
SI_	76	0	0	96	288	4
TAP	78	0	5
TAP	78	192	5
TAP	79	0	4
TAP	79	0	5
STR	80	0	6
SI_	80	0	6	96	288	3
TAP	82	0	2
TAP	82	192	2
HLD	83	0	2	192
HLD	83	0	3	192
TAP	84	0	1
TAP	84	96	1
TAP	84	192	1
TAP	85	0	2
TAP	85	96	2
TAP	85	192	2
TAP	86	0	3
TAP	86	96	3
TAP	86	192	3
TAP	87	0	4
TAP	87	96	3
TAP	87	192	4
TAP	88	0	5
TAP	88	96	5
TAP	88	192	5
TAP	89	0	6
TAP	89	96	6
TAP	89	192	6
TAP	90	0	7
TAP	90	96	7
TAP	90	192	7
TAP	91	0	0
TAP	91	96	0
TAP	91	192	7
TAP	91	288	7
XTP	92	0	1
XTP	92	0	6

T_REC_TAP	109
T_REC_BRK	6
T_REC_XTP	8
T_REC_HLD	18
T_REC_XHO	0
T_REC_STR	4
T_REC_BST	0
T_REC_XST	0
T_REC_TTP	14
T_REC_THO	1
T_REC_SLD	4
T_REC_ALL	164
T_NUM_TAP	135
T_NUM_BRK	6
T_NUM_HLD	19
T_NUM_SLD	4
T_NUM_ALL	164
T_JUDGE_TAP	141
T_JUDGE_HLD	88
T_JUDGE_SLD	4
T_JUDGE_ALL	233
TTM_EACHPAIRS	19
TTM_SCR_TAP	67500
TTM_SCR_BRK	15600
TTM_SCR_HLD	19000
TTM_SCR_SLD	6000
TTM_SCR_ALL	108100
TTM_SCR_S	104300
TTM_SCR_SS	107500
TTM_RAT_ACV	10055

