VERSION	0.00.00	1.03.00
FES_MODE	0
BPM_DEF	154.000	154.000	154.000	154.000
MET_DEF	4	4
RESOLUTION	384
CLK_DEF	384
COMPATIBLE_CODE	MA2

BPM	0	0	154.000
MET	0	0	4	4
MET	18	0	4	2
MET	18	192	4	4

HLD	2	0	4	144
TAP	2	144	3
TAP	2	192	4
STR	2	288	3
SCL	2	288	3	96	288	4
TAP	2	288	4
STR	3	288	7
SCR	3	288	7	96	288	6
TAP	5	0	2
TAP	5	0	3
TAP	5	48	2
TAP	5	96	3
TAP	5	96	5
TAP	5	144	5
TAP	5	192	1
TAP	5	192	3
TAP	5	240	1
TAP	5	288	3
TAP	5	288	6
TAP	5	336	6
TAP	6	0	3
TAP	6	48	3
TAP	6	72	4
STR	6	96	2
SLR	6	96	2	96	96	0
TAP	6	144	5
TAP	6	192	7
TAP	6	240	7
TAP	6	288	7
TAP	7	0	4
TAP	7	48	4
TAP	7	72	3
STR	7	96	5
SLL	7	96	5	96	96	7
TAP	7	144	2
TAP	7	192	0
TAP	7	240	0
TAP	7	288	0
TAP	8	0	2
TAP	8	48	2
TAP	8	72	3
HLD	8	96	1	96
TAP	8	192	5
TAP	8	240	5
TAP	8	264	4
HLD	8	288	6	96
HLD	9	0	2	96
TAP	9	48	3
HLD	9	96	5	96
TAP	9	144	4
HLD	9	192	1	96
TAP	9	240	0
HLD	9	288	6	48
TAP	9	336	7
TAP	10	0	6
TAP	10	0	7
TAP	10	48	6
TAP	10	48	7
TAP	10	96	4
TAP	10	96	5
TAP	10	144	4
TAP	10	144	5
TAP	10	192	2
TAP	10	192	3
TAP	10	240	2
TAP	10	240	3
TAP	10	288	0
TAP	10	288	1
TAP	10	336	0
TAP	10	336	1
STR	11	0	2
SCR	11	0	2	96	96	5
TAP	11	96	7
STR	11	192	6
SUL	11	192	6	96	96	1
TAP	11	288	0
STR	12	0	0
SCR	12	0	0	96	96	4
TAP	12	96	5
TAP	12	192	7
TAP	12	240	6
TAP	12	288	0
TAP	12	288	5
STR	13	0	7
SCL	13	0	7	96	96	4
TAP	13	96	1
STR	13	192	0
SCR	13	192	0	96	96	3
TAP	13	288	6
TAP	14	0	5
TAP	14	48	6
TAP	14	96	0
TAP	14	96	7
TAP	14	144	1
TAP	14	192	2
TAP	14	192	5
HLD	14	288	2	96
STR	15	0	5
SCL	15	0	5	96	96	2
TAP	15	96	0
STR	15	192	1
SUR	15	192	1	96	96	6
TAP	15	288	5
STR	16	0	4
SSL	16	0	4	96	96	0
TAP	16	96	1
TAP	16	192	2
TAP	16	240	7
TAP	16	288	1
TAP	16	288	6
STR	17	0	1
SLR	17	0	1	96	96	7
TAP	17	96	4
STR	17	192	6
SLL	17	192	6	96	96	0
TAP	17	288	3
TAP	18	0	3
TAP	18	48	3
TAP	18	96	2
TAP	18	96	4
TTP	18	192	3	B	0	M1
TAP	18	192	7
TTP	18	288	4	B	0	M1
TAP	18	288	7
THO	19	0	0	96	C	0	M1
TTP	19	0	3	B	0	M1
HLD	19	0	7	96
TAP	19	192	0
TTP	19	192	4	B	0	M1
TTP	19	192	5	B	0	M1
TAP	19	240	0
TAP	19	288	0
TTP	19	288	2	B	0	M1
TTP	19	288	3	B	0	M1
TAP	19	336	0
HLD	20	0	0	96
THO	20	0	0	96	C	0	M1
TTP	20	0	4	B	0	M1
TTP	20	0	5	B	0	M1
HLD	20	192	7	96
HLD	20	288	5	96
TAP	21	0	3
TAP	21	48	1
STR	21	96	7
SCL	21	96	7	96	96	3
SCR	21	96	7	96	96	3
TAP	22	0	4
TAP	22	0	5
TAP	22	48	3
TAP	22	48	6
TAP	22	96	2
TAP	22	96	7
HLD	22	192	0	96
HLD	22	288	2	96
TAP	23	0	4
TAP	23	48	6
STR	23	96	7
SCR	23	96	7	96	48	2
STR	23	192	3
SCR	23	192	3	96	48	6
STR	23	288	7
SUR	23	288	7	96	96	0
TAP	24	0	3
STR	24	192	2
SI_	24	192	2	96	48	7
STR	24	192	6
SI_	24	192	6	96	48	3
STR	25	0	1
SCR	25	0	1	96	48	4
TAP	25	48	0
TAP	25	96	7
TAP	25	144	6
STR	25	192	5
SCR	25	192	5	96	48	0
TAP	25	240	4
TAP	25	288	3
TAP	25	336	2
TAP	26	0	1
TAP	26	48	7
TAP	26	96	0
STR	26	192	1
SI_	26	192	1	96	48	5
STR	26	240	5
SI_	26	240	5	96	48	1
TAP	26	288	1
STR	27	0	6
SI_	27	0	6	96	48	2
STR	27	48	2
SI_	27	48	2	96	48	6
TAP	27	96	6
TAP	27	192	3
TAP	27	240	5
TAP	27	288	1
TAP	27	336	7
TAP	28	0	2
TAP	28	0	6
STR	28	96	0
SI_	28	96	0	96	192	4
HLD	28	192	5	96
HLD	29	0	6	96
STR	29	96	7
SI_	29	96	7	96	192	3
HLD	29	192	2	96
HLD	30	0	1	96
STR	30	96	0
SSL	30	96	0	96	192	4
HLD	30	192	5	96
HLD	31	0	6	96
STR	31	96	7
SSR	31	96	7	96	192	3
HLD	31	192	2	96
HLD	32	0	1	96
STR	32	96	2
SI_	32	96	2	96	192	6
HLD	32	192	5	96
HLD	33	0	4	96
STR	33	96	7
SI_	33	96	7	96	192	3
HLD	33	192	2	96
HLD	34	0	1	96
TAP	34	96	0
HLD	34	192	1	96
TAP	34	288	3
TAP	34	336	2
HLD	35	0	4	96
TAP	35	96	5
HLD	35	192	6	96
TAP	35	288	4
TAP	35	336	5
HLD	36	0	3	96
TAP	36	96	2
HLD	36	192	1	96
HLD	36	192	4	96
TAP	36	336	3
HLD	37	0	3	96
HLD	37	0	6	96
TAP	37	144	4
TAP	37	192	1
TAP	37	192	4
TAP	37	240	3
TAP	37	288	3
TAP	37	288	6
TAP	37	336	4
TAP	38	0	1
TAP	38	0	4
TAP	38	96	3
TAP	38	96	5
HLD	38	192	2	96
HLD	38	192	6	96
TAP	38	336	4
TAP	38	336	5
HLD	39	0	1	96
HLD	39	0	5	96
TAP	39	144	2
TAP	39	144	3
TAP	39	192	2
TAP	39	192	6
TAP	39	240	4
TAP	39	240	5
TAP	39	288	1
TAP	39	288	5
TAP	39	336	2
TAP	39	336	3
TAP	40	0	2
TAP	40	0	6
STR	40	96	0
SI_	40	96	0	96	96	4
STR	40	96	4
SCR	40	96	4	96	192	3
BRK	40	192	0
TAP	41	0	7
TAP	41	48	7
STR	41	96	3
SCL	41	96	3	96	192	4
STR	41	96	7
SI_	41	96	7	96	96	3
BRK	41	192	7
TAP	42	0	0
TAP	42	48	0
STR	42	96	0
SI_	42	96	0	96	96	4
STR	42	96	4
SCR	42	96	4	96	192	3
BRK	42	192	0
TAP	43	0	7
TAP	43	48	7
TAP	43	96	0
TAP	43	96	7
TAP	43	192	4
TAP	43	192	6
TAP	43	240	5
TAP	43	288	2
TAP	43	288	4
TAP	43	336	3
TAP	44	0	4
TAP	44	48	3
TAP	44	96	4
HLD	44	192	2	192
TAP	44	192	3
TTP	44	288	1	B	0	M1
HLD	45	0	0	192
TTP	45	96	7	B	0	M1
HLD	45	192	6	192
TTP	45	288	5	B	0	M1
HLD	46	0	4	192
TTP	46	96	3	B	0	M1
STR	46	192	2
SCR	46	192	2	96	96	5
TTP	46	288	0	C	0	M1
STR	47	0	0
SCR	47	0	0	96	96	3
TTP	47	96	0	C	0	M1
STR	47	192	6
SCR	47	192	6	96	96	1
TTP	47	288	0	C	0	M1
STR	48	0	4
SCR	48	0	4	96	96	7
TTP	48	96	0	C	0	M1
STR	48	192	2
SXR	48	192	2	96	144	6
TAP	48	336	4
TAP	49	0	4
TAP	49	96	5
TAP	49	96	7
STR	49	192	4
SXL	49	192	4	96	144	0
TAP	49	336	2
TAP	50	0	2
TAP	50	96	1
TAP	50	96	7
STR	50	192	1
SXL	50	192	1	96	144	5
TAP	50	336	7
TAP	51	0	7
TAP	51	96	4
TAP	51	96	6
STR	51	192	4
SXL	51	192	4	96	144	0
TAP	51	336	2
TAP	52	0	2
TAP	52	96	1
TAP	52	96	7
STR	52	144	0
SI_	52	144	0	96	48	3
STR	52	192	4
SI_	52	192	4	96	48	7
STR	52	336	1
SI_	52	336	1	96	48	4
STR	53	0	5
SI_	53	0	5	96	48	0
STR	53	144	2
SI_	53	144	2	96	48	5
STR	53	192	6
SI_	53	192	6	96	48	1
TAP	53	336	3
TAP	54	0	7
TAP	54	48	2
TAP	54	96	6
STR	54	144	6
SI_	54	144	6	96	48	3
STR	54	192	2
SI_	54	192	2	96	48	7
STR	54	336	5
SI_	54	336	5	96	48	2
STR	55	0	1
SI_	55	0	1	96	48	6
STR	55	144	4
SI_	55	144	4	96	48	1
STR	55	192	0
SI_	55	192	0	96	48	5
TAP	55	336	3
TAP	56	0	7
TAP	56	48	4
HLD	56	96	4	144
HLD	56	192	5	144
HLD	56	288	6	144
HLD	57	0	0	144
HLD	57	96	2	144
HLD	57	192	5	144
HLD	57	288	0	144
HLD	58	0	3	144
STR	58	96	6
SUL	58	96	6	96	576	3
SXL	58	96	6	96	576	3
TAP	58	192	6
TAP	60	144	3
TAP	60	144	4
TAP	60	192	2
TAP	60	192	5
TAP	60	240	0
TAP	60	240	7
TAP	60	288	1
TAP	60	288	6
TAP	60	336	3
TAP	60	336	4
THO	61	0	0	96	C	1	M1
TTP	61	0	1	B	0	M1
TTP	61	0	2	B	0	M1
TTP	61	0	5	B	0	M1
TTP	61	0	6	B	0	M1
STR	61	192	0
SCR	61	192	0	96	48	3
TAP	61	192	6
TAP	61	288	5
STR	62	0	4
SCR	62	0	4	96	48	7
TAP	62	96	1
HLD	62	144	1	240
TAP	62	192	0
TAP	62	240	0
TAP	62	288	2
TAP	62	336	2
STR	63	0	3
SCR	63	0	3	96	48	6
TAP	63	192	3
TAP	63	192	7
TAP	63	240	2
TAP	63	240	6
TAP	63	288	1
TAP	63	288	5
TAP	63	336	0
TAP	63	336	4
STR	64	0	3
SI_	64	0	3	96	48	6
STR	64	0	7
SI_	64	0	7	96	48	2
TAP	64	96	3
TAP	64	96	7
STR	64	192	0
SI_	64	192	0	96	48	5
STR	64	192	1
SI_	64	192	1	96	48	5
TAP	64	240	2
TAP	64	240	7
TAP	64	288	0
TAP	64	288	1
STR	65	0	2
SI_	65	0	2	96	48	6
STR	65	0	3
SI_	65	0	3	96	48	6
TAP	65	48	1
TAP	65	48	4
TAP	65	96	2
TAP	65	96	3
TAP	65	192	1
STR	65	192	7
SCL	65	192	7	96	48	4
TAP	65	288	2
STR	66	0	3
SCL	66	0	3	96	48	0
TAP	66	96	6
HLD	66	144	6	240
TAP	66	192	7
TAP	66	240	7
TAP	66	288	5
TAP	66	336	5
STR	67	0	4
SCL	67	0	4	96	48	1
STR	67	192	5
SI_	67	192	5	96	48	0
TAP	67	288	0
TAP	67	288	5
TAP	67	336	1
STR	68	0	2
SI_	68	0	2	96	48	7
TAP	68	96	2
TAP	68	96	6
TAP	68	144	5
STR	68	192	4
SI_	68	192	4	96	48	7
STR	68	240	4
SI_	68	240	4	96	48	1
STR	68	288	4
SI_	68	288	4	96	48	0
TTP	69	12	4	B	0	M1
TTP	69	24	0	C	1	M1
TTP	69	36	0	B	0	M1
TAP	69	96	1
TAP	69	96	5
STR	69	192	1
SI_	69	192	1	96	48	4
TAP	69	192	7
STR	69	288	5
SCR	69	288	5	96	96	3
HLD	70	0	0	384
TAP	70	144	5
TAP	70	192	6
TAP	70	240	7
TAP	70	288	1
TAP	70	336	2
STR	71	0	3
SI_	71	0	3	96	48	6
TAP	71	144	0
TAP	71	192	0
TAP	71	192	4
TAP	71	240	1
TAP	71	240	5
TAP	71	288	2
TAP	71	288	6
TAP	71	336	3
TAP	71	336	7
STR	72	0	0
SI_	72	0	0	96	48	5
STR	72	0	4
SI_	72	0	4	96	48	1
TAP	72	96	0
TAP	72	96	4
STR	72	192	0
SV_	72	192	0	96	48	3
STR	72	192	4
SV_	72	192	4	96	48	7
TAP	72	240	1
TAP	72	240	5
TAP	72	288	0
TAP	72	288	4
STR	73	0	3
SCL	73	0	3	96	48	0
STR	73	0	7
SCL	73	0	7	96	48	4
TAP	73	48	0
TAP	73	48	4
TAP	73	96	3
TAP	73	96	7
TAP	73	192	2
STR	73	192	6
SI_	73	192	6	96	48	3
STR	73	288	2
SCL	73	288	2	96	96	4
HLD	74	0	6	384
TAP	74	144	2
TAP	74	192	1
TAP	74	240	0
TAP	74	288	7
TAP	74	336	5
STR	75	0	4
SI_	75	0	4	96	48	1
STR	75	192	7
SI_	75	192	7	96	48	3
TAP	75	288	2
TAP	75	336	1
STR	76	0	0
SI_	76	0	0	96	48	4
TAP	76	96	5
TAP	76	144	6
TAP	76	192	7
STR	76	240	7
SI_	76	240	7	96	48	3
TAP	76	288	0
TAP	76	288	6
TAP	76	336	7
STR	77	48	0
SI_	77	48	0	96	48	4
TAP	77	96	1
TAP	77	96	7
TAP	77	144	0
STR	77	240	6
SI_	77	240	6	96	48	2
STR	77	240	7
SI_	77	240	7	96	48	3
TAP	77	288	0
TAP	77	288	5
TAP	77	336	6
TAP	77	336	7
STR	78	48	0
SI_	78	48	0	96	48	4
STR	78	48	1
SI_	78	48	1	96	48	5
TAP	78	96	2
TAP	78	96	7
TAP	78	144	0
TAP	78	144	1
STR	78	240	2
SI_	78	240	2	96	48	7
STR	78	240	6
SI_	78	240	6	96	48	3
TAP	78	288	3
TAP	78	288	7
TAP	78	336	2
TAP	78	336	6
STR	79	48	1
SI_	79	48	1	96	48	4
STR	79	48	5
SI_	79	48	5	96	48	0
TAP	79	96	0
TAP	79	96	4
TAP	79	144	1
TAP	79	144	5
TAP	79	240	0
TAP	79	240	6
TAP	79	288	1
TAP	79	288	5
TAP	79	336	2
TAP	79	336	4
TAP	80	0	3
TAP	80	0	5
TAP	80	48	2
TAP	80	48	6
BRK	80	96	1
BRK	80	96	7
TAP	80	192	5
TAP	80	240	5
TAP	80	264	4
STR	80	288	6
SLL	80	288	6	96	96	0
TAP	80	336	3
TTP	81	0	2	B	0	M1
TTP	81	48	2	E	0	M1
TTP	81	96	1	B	0	M1
TAP	81	192	2
TAP	81	240	2
TAP	81	264	3
STR	81	288	1
SLR	81	288	1	96	96	7
TAP	81	336	4
TTP	82	0	5	B	0	M1
TTP	82	48	6	E	0	M1
TTP	82	96	6	B	0	M1
TAP	82	192	3
STR	82	192	4
SI_	82	192	4	96	48	0
TAP	82	240	5
TAP	82	264	3
TAP	82	288	4
STR	83	0	3
SI_	83	0	3	96	48	7
TAP	83	0	4
TAP	83	48	2
TAP	83	72	4
TAP	83	96	3
HLD	83	192	6	96
TAP	83	240	5
HLD	83	288	1	96
TAP	83	336	2
TAP	84	0	0
TAP	84	48	2
TAP	84	48	7
TAP	84	96	3
TAP	84	96	6
TAP	84	144	4
TAP	84	144	5
TAP	84	192	6
TAP	84	240	6
TAP	84	264	7
STR	84	288	5
SLR	84	288	5	96	96	3
TAP	84	336	0
TTP	85	0	1	B	0	M1
TTP	85	48	2	E	0	M1
TTP	85	96	2	B	0	M1
TAP	85	192	1
TAP	85	240	1
TAP	85	264	0
STR	85	288	2
SLL	85	288	2	96	96	4
TAP	85	336	7
TTP	86	0	6	B	0	M1
TTP	86	48	6	E	0	M1
TTP	86	96	5	B	0	M1
STR	86	192	0
SI_	86	192	0	96	48	4
TAP	86	192	7
TAP	86	240	1
TAP	86	264	7
TAP	86	288	0
TAP	87	0	0
STR	87	0	7
SI_	87	0	7	96	48	3
TAP	87	48	6
TAP	87	72	0
TAP	87	96	7
TAP	87	192	0
TAP	87	192	1
TAP	87	240	3
TAP	87	288	6
TAP	87	288	7
TAP	87	336	4
TAP	88	0	0
TAP	88	0	1
TAP	88	48	2
TAP	88	48	7
TAP	88	96	4
TAP	88	96	5
TAP	88	144	3
TAP	88	144	6
HLD	88	192	1	288
HLD	88	192	7	288
TAP	89	192	0
TTP	89	192	5	E	0	M1
TAP	89	240	0
TAP	89	288	0
TTP	89	288	2	B	0	M1
TTP	89	288	2	E	0	M1
TAP	89	336	0
STR	90	0	0
SF_	90	0	0	96	48	4
TTP	90	0	6	B	0	M1
TTP	90	0	7	B	0	M1
TTP	90	0	7	E	0	M1
TAP	90	96	0

T_REC_TAP	371
T_REC_BRK	5
T_REC_XTP	0
T_REC_HLD	58
T_REC_XHO	0
T_REC_STR	109
T_REC_BST	0
T_REC_XST	0
T_REC_TTP	42
T_REC_THO	3
T_REC_SLD	111
T_REC_ALL	699
T_NUM_TAP	522
T_NUM_BRK	5
T_NUM_HLD	61
T_NUM_SLD	111
T_NUM_ALL	699
T_JUDGE_TAP	527
T_JUDGE_HLD	164
T_JUDGE_SLD	111
T_JUDGE_ALL	802
TTM_EACHPAIRS	119
TTM_SCR_TAP	261000
TTM_SCR_BRK	13000
TTM_SCR_HLD	61000
TTM_SCR_SLD	166500
TTM_SCR_ALL	501500
TTM_SCR_S	486000
TTM_SCR_SS	501000
TTM_RAT_ACV	10009

