VERSION	0.00.00	1.03.00
FES_MODE	0
BPM_DEF	154.000	154.000	154.000	154.000
MET_DEF	4	4
RESOLUTION	384
CLK_DEF	384
COMPATIBLE_CODE	MA2

BPM	0	0	154.000
MET	0	0	4	4
MET	18	0	4	2
MET	18	192	4	4

HLD	2	0	4	384
TAP	2	192	3
TAP	2	288	3
HLD	3	0	3	384
TAP	3	192	4
TAP	3	288	4
STR	4	0	4
SCR	4	0	4	96	288	3
TAP	5	192	3
TAP	5	192	4
TAP	5	288	1
TAP	5	288	6
TAP	6	0	5
TAP	6	96	4
TAP	6	96	5
TAP	6	192	3
TAP	6	240	3
TAP	6	288	4
TAP	7	0	2
TAP	7	96	2
TAP	7	96	3
TAP	7	192	4
TAP	7	240	4
TAP	7	288	3
TAP	8	0	5
TAP	8	96	4
TAP	8	96	6
TAP	8	192	2
TAP	8	288	1
TAP	8	288	3
XST	9	0	0
SI_	9	0	0	96	96	4
XST	9	192	7
SI_	9	192	7	96	96	3
TAP	10	0	2
TAP	10	96	1
TAP	10	192	0
TAP	10	240	0
XTP	10	288	0
XTP	10	288	6
HLD	11	0	5	192
HLD	11	192	4	192
TAP	12	0	3
TAP	12	96	4
TAP	12	192	4
TAP	12	192	5
TAP	12	288	3
TAP	12	288	6
HLD	13	0	5	192
HLD	13	192	4	192
TAP	14	0	3
TAP	14	96	2
TAP	14	144	2
TAP	14	192	3
TAP	14	288	1
TAP	14	288	4
HLD	15	0	2	192
HLD	15	192	3	192
TAP	16	0	4
TAP	16	96	3
TAP	16	192	2
TAP	16	240	2
TAP	16	288	3
HLD	17	0	4	96
HLD	17	0	6	96
HLD	17	192	1	96
HLD	17	192	3	96
TAP	18	0	0
TAP	18	48	0
TAP	18	96	7
TAP	18	192	1
TAP	18	192	6
STR	18	288	2
SCL	18	288	2	96	96	7
TAP	18	288	3
TAP	19	192	0
TAP	19	192	6
TAP	19	288	4
STR	19	288	5
SCR	19	288	5	96	96	0
HLD	20	192	2	480
TAP	20	192	4
TAP	20	288	4
TAP	21	0	3
TAP	21	96	3
TAP	21	192	5
TAP	21	288	3
TAP	22	0	4
TAP	22	48	4
TAP	22	96	3
TAP	22	192	2
HLD	22	192	5	288
TAP	22	288	2
TAP	23	0	4
STR	23	96	4
SCL	23	96	4	96	96	1
TAP	24	0	7
TAP	24	96	0
XTP	24	192	1
XTP	24	192	7
XTP	24	288	2
XTP	24	288	6
TAP	25	0	3
HLD	25	0	5	288
TAP	25	96	4
TAP	25	192	6
TAP	25	288	4
TAP	26	0	3
TAP	26	0	6
TAP	26	48	3
TAP	26	48	6
TAP	26	96	3
TAP	26	96	6
TAP	26	192	1
TAP	26	240	1
TAP	26	288	3
TAP	27	0	6
TAP	27	48	6
TAP	27	96	4
TAP	27	192	3
TAP	27	192	5
TAP	27	288	2
TAP	27	288	4
XTP	28	0	1
XTP	28	0	5
TAP	28	192	2
HLD	28	192	3	192
HLD	29	0	1	192
TTP	29	192	1	E	0	M1
TTP	29	288	0	C	0	M1
TTP	30	0	4	E	0	M1
TTP	30	0	6	E	0	M1
HLD	30	192	4	192
TAP	30	192	5
HLD	31	0	6	192
TTP	31	192	7	E	0	M1
TTP	31	288	0	C	0	M1
TTP	32	0	2	E	0	M1
TTP	32	0	4	E	0	M1
TAP	32	192	0
HLD	32	192	1	192
HLD	33	0	3	192
TTP	33	192	3	E	0	M1
TTP	33	288	0	C	0	M1
TTP	34	0	0	E	0	M1
TTP	34	0	6	E	0	M1
HLD	34	192	5	192
TAP	34	336	4
TAP	35	0	4
TAP	35	96	3
TAP	35	96	6
STR	35	192	7
SI_	35	192	7	96	96	3
HLD	36	0	1	192
BRK	36	192	0
XTP	36	336	2
XTP	37	0	1
XTP	37	0	3
TAP	37	144	5
TAP	37	192	5
TAP	37	240	4
TAP	37	288	6
TAP	37	336	0
TAP	38	0	7
TAP	38	96	0
TAP	38	96	6
BRK	38	192	1
BRK	38	192	7
XTP	38	336	5
XTP	39	0	4
XTP	39	0	6
TAP	39	144	2
TAP	39	192	2
TAP	39	240	3
TAP	39	288	1
TAP	39	336	7
TAP	40	0	0
TAP	40	96	1
TAP	40	96	7
BRK	40	192	2
BRK	40	192	6
TAP	40	288	3
TAP	40	288	4
TAP	41	0	2
TAP	41	48	2
TAP	41	96	3
TAP	41	192	3
TAP	41	192	4
TAP	41	288	2
TAP	41	288	5
TAP	42	0	6
TAP	42	48	6
TAP	42	96	7
STR	42	192	0
SCR	42	192	0	96	96	3
STR	43	0	7
SCL	43	0	7	96	96	4
XTP	43	192	2
XTP	43	288	1
XTP	43	288	3
XTP	44	0	2
XTP	44	0	6
XTP	44	48	2
XTP	44	48	6
BRK	44	96	2
BRK	44	96	6
HLD	44	192	4	96
HLD	44	192	5	288
HLD	45	0	4	96
HLD	45	192	2	288
HLD	45	192	3	96
HLD	46	0	3	96
HLD	46	192	4	96
HLD	46	192	6	288
HLD	47	0	4	96
XTP	47	192	5
XTP	47	288	7
XTP	48	0	0
XTP	48	96	2
HLD	48	192	5	192
HLD	49	0	4	192
STR	49	192	3
SCR	49	192	3	96	144	6
HLD	50	192	2	192
HLD	51	0	3	192
STR	51	192	4
SCL	51	192	4	96	144	1
TAP	52	192	3
HLD	52	192	5	96
TAP	52	288	4
HLD	53	0	2	96
TAP	53	0	4
TAP	53	96	3
TAP	53	192	3
HLD	53	192	6	96
TAP	53	288	4
TAP	54	0	3
TAP	54	0	5
TAP	54	96	2
TAP	54	96	4
HLD	54	192	1	96
TAP	54	192	5
TAP	54	288	3
TAP	55	0	2
HLD	55	0	6	96
TAP	55	96	4
HLD	55	192	1	96
TAP	55	192	5
TAP	55	288	3
TAP	56	0	2
TAP	56	0	4
TAP	56	96	0
TAP	56	96	6
HLD	56	192	7	96
HLD	56	288	6	96
HLD	57	0	5	96
HLD	57	96	4	96
HLD	57	192	3	96
HLD	57	288	2	96
HLD	58	0	1	96
STR	58	96	0
SSL	58	96	0	96	336	4
BRK	58	192	7
TTP	60	192	5	B	0	M1
TTP	60	192	6	B	0	M1
TTP	60	192	6	E	0	M1
TTP	60	288	1	B	0	M1
TTP	60	288	2	B	0	M1
TTP	60	288	2	E	0	M1
TTP	61	0	3	B	0	M1
TTP	61	0	4	B	0	M1
TTP	61	0	4	E	0	M1
TTP	61	96	0	C	0	M1
BST	61	192	0
SI_	61	192	0	96	48	4
BRK	61	192	7
BST	61	288	6
SI_	61	288	6	96	48	3
BRK	62	0	2
TAP	62	96	1
TAP	62	96	4
TAP	62	192	6
TAP	62	192	7
STR	62	288	4
SCL	62	288	4	96	96	1
STR	62	288	5
SUL	62	288	5	96	96	0
HLD	63	192	6	96
HLD	63	288	4	96
HLD	64	0	2	96
TAP	64	96	0
TAP	64	192	2
TAP	64	240	3
TAP	64	288	1
TAP	64	288	4
TAP	65	0	5
TAP	65	48	4
TAP	65	96	3
TAP	65	96	6
XTP	65	192	0
STR	65	192	7
SI_	65	192	7	96	48	3
STR	65	288	1
SI_	65	288	1	96	48	4
TAP	66	0	5
TAP	66	96	3
TAP	66	96	6
TAP	66	192	0
TAP	66	192	1
STR	66	288	2
SUR	66	288	2	96	96	7
STR	66	288	3
SCR	66	288	3	96	96	6
TAP	67	192	0
TAP	67	192	1
TAP	67	288	4
TAP	67	336	3
TAP	68	0	2
TAP	68	0	4
TAP	68	96	3
TAP	68	144	4
TAP	68	192	3
STR	68	192	5
SUR	68	192	5	96	96	2
XTP	69	96	0
XTP	69	96	7
STR	69	192	1
SI_	69	192	1	96	48	4
STR	69	192	6
SI_	69	192	6	96	48	3
BRK	70	0	2
BRK	70	0	6
TAP	70	144	5
TAP	70	192	4
STR	70	192	5
SI_	70	192	5	96	48	0
STR	70	288	1
SCR	70	288	1	96	96	6
BRK	71	0	7
HLD	71	192	0	96
HLD	71	288	6	96
HLD	72	0	4	96
TAP	72	96	2
TAP	72	192	1
TAP	72	240	0
TAP	72	288	2
TAP	72	288	7
TAP	73	0	6
TAP	73	48	7
TAP	73	96	0
TAP	73	96	5
STR	73	192	4
SI_	73	192	4	96	48	0
STR	73	288	2
SI_	73	288	2	96	48	7
TAP	74	0	6
TAP	74	96	0
TAP	74	96	5
TAP	74	192	2
TAP	74	192	3
STR	74	288	4
SUR	74	288	4	96	96	1
STR	74	288	5
SCR	74	288	5	96	96	0
HLD	75	192	2	96
TAP	75	288	3
TAP	75	336	1
HLD	76	0	5	96
TAP	76	96	4
TAP	76	144	6
XST	76	192	0
SCR	76	192	0	96	96	3
STR	77	0	4
SCR	77	0	4	96	96	7
STR	77	192	0
SI_	77	192	0	96	96	4
STR	78	0	5
SI_	78	0	5	96	96	1
STR	78	192	3
SI_	78	192	3	96	96	7
STR	79	0	6
SI_	79	0	6	96	96	2
HLD	79	192	1	192
TAP	80	0	7
BRK	80	96	0
BRK	80	96	6
TAP	80	192	1
TAP	80	192	5
TAP	80	288	3
TAP	81	0	5
TAP	81	48	5
TAP	81	96	6
TAP	81	192	2
TAP	81	192	7
TAP	81	288	4
TAP	82	0	2
TAP	82	48	2
TAP	82	96	1
TAP	82	192	0
HLD	82	192	1	96
TAP	82	288	3
TAP	83	0	4
HLD	83	0	6	96
STR	83	96	7
SSR	83	96	7	96	192	3
XTP	84	96	1
XTP	84	96	5
TAP	84	192	3
TAP	84	192	4
TAP	84	288	6
TAP	84	288	7
TAP	85	0	0
TAP	85	48	0
TAP	85	96	1
TAP	85	192	3
TAP	85	192	6
TAP	85	288	0
TAP	85	288	1
TAP	86	0	7
TAP	86	48	7
TAP	86	96	6
TAP	86	192	4
HLD	86	192	5	96
TAP	86	288	0
HLD	87	0	2	96
TAP	87	0	3
TAP	87	96	7
TAP	87	192	6
TAP	87	240	6
TAP	87	288	4
TAP	87	336	5
TAP	88	0	2
TAP	88	48	2
TAP	88	96	3
TAP	88	144	1
THO	88	192	0	192	C	0	M1
BRK	89	192	0
BRK	89	192	7
BRK	89	288	4
BRK	89	288	6
BST	90	0	1
SI_	90	0	1	96	48	3
BST	90	0	5
SI_	90	0	5	96	48	3

T_REC_TAP	234
T_REC_BRK	19
T_REC_XTP	30
T_REC_HLD	62
T_REC_XHO	0
T_REC_STR	31
T_REC_BST	4
T_REC_XST	3
T_REC_TTP	22
T_REC_THO	1
T_REC_SLD	38
T_REC_ALL	444
T_NUM_TAP	320
T_NUM_BRK	23
T_NUM_HLD	63
T_NUM_SLD	38
T_NUM_ALL	444
T_JUDGE_TAP	343
T_JUDGE_HLD	206
T_JUDGE_SLD	38
T_JUDGE_ALL	587
TTM_EACHPAIRS	94
TTM_SCR_TAP	160000
TTM_SCR_BRK	59800
TTM_SCR_HLD	63000
TTM_SCR_SLD	57000
TTM_SCR_ALL	339800
TTM_SCR_S	327400
TTM_SCR_SS	337500
TTM_RAT_ACV	10068

