VERSION	0.00.00	1.03.00
FES_MODE	0
BPM_DEF	154.000	154.000	154.000	154.000
MET_DEF	4	4
RESOLUTION	384
CLK_DEF	384
COMPATIBLE_CODE	MA2

BPM	0	0	154.000
MET	0	0	4	4
MET	18	0	4	2
MET	18	192	4	4

XTP	6	0	2
TAP	6	96	2
TAP	6	192	2
TAP	6	192	3
TAP	7	0	5
TAP	7	96	5
TAP	7	192	4
TAP	7	192	5
TAP	8	0	2
TAP	8	96	2
TAP	8	192	3
TAP	8	288	3
TAP	9	0	4
TAP	9	96	5
TAP	9	192	6
TAP	9	288	7
TAP	10	0	0
TAP	10	0	7
TAP	10	96	0
TAP	10	96	7
BRK	10	192	1
BRK	10	192	6
HLD	11	0	2	192
TAP	11	192	3
HLD	12	0	5	96
XTP	12	192	4
XTP	12	192	5
XTP	12	288	4
XTP	12	288	5
HLD	13	0	2	192
TAP	13	192	3
HLD	14	0	4	96
HLD	14	0	5	96
TAP	14	192	4
TAP	14	192	5
HLD	15	0	6	192
TAP	15	192	7
HLD	16	0	1	96
XTP	16	192	0
XTP	16	192	1
XTP	16	288	0
XTP	16	288	1
HLD	17	0	6	192
TAP	17	192	7
TAP	18	0	0
TAP	18	0	7
STR	18	192	1
SCR	18	192	1	96	144	4
STR	19	192	5
SCR	19	192	5	96	144	0
TAP	20	192	1
TAP	20	288	1
TAP	21	0	0
TAP	21	192	6
TAP	21	288	6
TAP	22	0	7
TAP	22	192	1
TAP	22	288	1
TAP	23	0	0
TAP	23	192	7
TAP	23	288	7
TAP	24	0	0
TAP	24	0	6
TAP	24	192	5
TAP	24	288	5
TAP	25	0	4
TAP	25	192	2
TAP	25	288	2
TAP	26	0	3
TAP	26	192	5
TAP	26	288	5
TAP	27	0	4
TAP	27	192	3
TAP	27	288	3
TAP	28	0	2
TAP	28	0	4
TTP	28	192	3	B	0	L1
TTP	29	0	2	B	0	L1
THO	29	192	0	192	C	0	L1
TTP	30	192	5	B	0	L1
TTP	31	0	4	B	0	L1
THO	31	192	0	192	C	0	L1
TTP	32	192	0	B	0	L1
TTP	33	0	1	B	0	L1
TTP	33	192	2	B	0	L1
TTP	33	192	3	B	0	L1
TTP	34	192	4	B	0	L1
TTP	35	0	5	B	0	L1
TTP	35	192	1	B	0	L1
TTP	35	192	6	B	0	L1
STR	36	192	2
SI_	36	192	2	96	144	7
TAP	37	192	6
TAP	37	288	6
TAP	38	0	6
TAP	38	0	7
STR	38	192	6
SI_	38	192	6	96	144	3
TAP	39	192	2
TAP	39	288	2
TAP	40	0	2
TAP	40	0	3
BRK	40	192	1
BRK	40	192	6
TAP	41	192	6
TAP	41	288	6
TAP	42	0	6
TAP	42	0	7
TAP	42	192	1
TAP	42	288	1
TAP	43	0	0
TAP	43	0	1
TAP	43	192	7
TAP	43	288	0
TAP	44	0	1
TAP	44	0	6
STR	44	192	2
SCL	44	192	2	96	432	5
STR	46	192	5
SCR	46	192	5	96	432	2
STR	48	192	2
SCL	48	192	2	96	144	7
STR	49	192	6
SI_	49	192	6	96	144	2
STR	50	192	1
SI_	50	192	1	96	144	5
STR	51	192	6
SCL	51	192	6	96	144	3
XHO	52	192	2	192
HLD	53	0	3	192
HLD	53	192	4	192
XTP	54	0	5
HLD	54	192	6	192
HLD	55	0	7	192
HLD	55	192	0	192
XTP	56	0	1
HLD	56	192	2	96
HLD	56	192	3	96
TAP	57	0	2
TAP	57	0	3
HLD	57	192	4	96
HLD	57	192	5	96
TAP	58	0	4
TAP	58	0	5
XTP	58	192	1
XTP	58	192	6
TTP	60	192	1	B	0	L1
TTP	60	192	6	B	0	L1
TTP	61	0	0	C	1	L1
XTP	61	192	0
TAP	61	288	1
TAP	62	0	0
TAP	62	0	1
TAP	62	96	0
TAP	62	96	1
TAP	62	192	1
TAP	62	288	0
TAP	63	0	1
TAP	63	0	7
TAP	63	192	6
TAP	63	288	6
TAP	64	0	5
TAP	64	96	5
XTP	64	192	4
XTP	64	288	3
XTP	65	0	2
XTP	65	0	5
TAP	65	192	6
TAP	65	288	6
TAP	66	0	6
TAP	66	0	7
TAP	66	96	6
TAP	66	96	7
TAP	66	192	6
TAP	66	288	7
TAP	67	0	0
TAP	67	0	6
TAP	67	192	1
TAP	67	288	1
TAP	68	0	2
TAP	68	96	2
XTP	68	192	3
XTP	68	192	4
XTP	68	288	3
XTP	68	288	4
XTP	69	0	2
XTP	69	0	5
HLD	69	192	6	192
TAP	69	288	7
TAP	70	0	7
HLD	70	192	1	192
TAP	70	288	0
TAP	71	0	0
TAP	71	192	6
TAP	71	288	6
TAP	72	0	5
TAP	72	96	5
TAP	72	192	4
TAP	72	288	4
TAP	73	0	3
TAP	73	0	5
HLD	73	192	2	192
TAP	73	288	3
TAP	74	0	3
HLD	74	192	5	192
TAP	74	288	4
TAP	75	0	4
TAP	75	192	3
TAP	75	288	3
TAP	76	0	4
TAP	76	96	4
HLD	76	192	5	192
HLD	77	0	4	192
HLD	77	192	3	192
XTP	78	0	2
HLD	78	192	1	192
HLD	79	0	0	192
HLD	79	192	7	192
XTP	80	0	6
BRK	80	192	5
TAP	80	288	5
TAP	81	0	4
TAP	81	0	5
TAP	81	192	2
TAP	81	288	2
TAP	82	0	2
TAP	82	0	3
TAP	82	192	5
TAP	82	288	5
TAP	83	0	4
TAP	83	96	4
TAP	83	192	3
TAP	83	288	3
TAP	84	0	2
TAP	84	0	4
TAP	84	192	1
TAP	84	288	1
TAP	85	0	0
TAP	85	0	1
TAP	85	192	6
TAP	85	288	6
TAP	86	0	6
TAP	86	0	7
TAP	86	192	1
TAP	86	288	1
TAP	87	0	0
TAP	87	96	0
XTP	87	192	0
XTP	87	192	7
XTP	87	288	0
XTP	87	288	7
XTP	88	0	0
XTP	88	0	7
XTP	88	96	0
XTP	88	96	7
STR	88	192	0
SXL	88	192	0	96	384	3
STR	88	192	7
SXR	88	192	7	96	384	4
XTP	90	96	3
XTP	90	96	4

T_REC_TAP	151
T_REC_BRK	5
T_REC_XTP	36
T_REC_HLD	27
T_REC_XHO	1
T_REC_STR	12
T_REC_BST	0
T_REC_XST	0
T_REC_TTP	15
T_REC_THO	2
T_REC_SLD	12
T_REC_ALL	261
T_NUM_TAP	214
T_NUM_BRK	5
T_NUM_HLD	30
T_NUM_SLD	12
T_NUM_ALL	261
T_JUDGE_TAP	219
T_JUDGE_HLD	104
T_JUDGE_SLD	12
T_JUDGE_ALL	335
TTM_EACHPAIRS	47
TTM_SCR_TAP	107000
TTM_SCR_BRK	13000
TTM_SCR_HLD	30000
TTM_SCR_SLD	18000
TTM_SCR_ALL	168000
TTM_SCR_S	162500
TTM_SCR_SS	167500
TTM_RAT_ACV	10029

