VERSION	0.00.00	1.03.00
FES_MODE	0
BPM_DEF	154.000	154.000	154.000	154.000
MET_DEF	4	4
RESOLUTION	384
CLK_DEF	384
COMPATIBLE_CODE	MA2

BPM	0	0	154.000
MET	0	0	4	4
MET	18	0	4	2
MET	18	192	4	4

TAP	6	0	0
TAP	7	0	0
TAP	8	0	7
HLD	9	0	7	384
TAP	11	0	0
TAP	11	192	0
TAP	12	0	0
TAP	13	0	1
TAP	13	192	1
TAP	14	0	1
TAP	15	0	2
TAP	15	192	2
TAP	16	0	2
TAP	17	0	3
TAP	17	192	3
TAP	18	0	4
HLD	18	192	4	384
TAP	20	192	3
TAP	21	0	3
TAP	21	192	3
TAP	21	192	4
TAP	22	192	4
TAP	23	0	4
XTP	23	192	3
XTP	23	192	4
TAP	24	192	5
TAP	25	0	5
TAP	25	192	6
TAP	26	0	6
TAP	26	192	7
TAP	27	0	7
BRK	27	192	0
BRK	27	192	7
STR	28	192	7
SI_	28	192	7	96	288	4
STR	30	192	0
SI_	30	192	0	96	288	3
HLD	32	192	7	384
TAP	34	192	6
TAP	35	0	6
TAP	35	192	5
TAP	36	0	5
TAP	36	192	3
TAP	36	192	4
TAP	37	0	3
TAP	37	0	4
TAP	37	192	4
TAP	37	288	3
XTP	38	0	4
TAP	38	192	3
TAP	38	192	4
TAP	39	0	3
TAP	39	0	4
TAP	39	192	3
TAP	39	288	4
BRK	40	0	3
TAP	40	192	2
TAP	41	0	2
TAP	41	192	1
TAP	42	0	1
TAP	42	192	0
TAP	43	0	0
TAP	43	192	7
TAP	43	288	7
TAP	44	0	7
STR	44	192	6
SI_	44	192	6	96	288	2
STR	46	192	1
SI_	46	192	1	96	288	5
TTP	48	192	6	B	0	L1
TTP	49	192	5	B	0	L1
TTP	50	192	4	B	0	L1
TTP	51	192	3	B	0	L1
TTP	52	192	2	B	0	L1
TTP	52	192	4	E	0	L1
TTP	53	192	3	B	0	L1
TTP	53	192	4	B	0	L1
TTP	54	192	4	E	0	L1
TTP	54	192	5	B	0	L1
TTP	55	192	3	B	0	L1
TTP	55	192	4	B	0	L1
THO	56	192	0	768	C	0	L1
XTP	60	192	0
XTP	60	288	0
BRK	61	0	0
TAP	61	192	7
TAP	61	288	7
TAP	62	0	7
TAP	62	192	6
TAP	62	288	6
TAP	63	0	6
TAP	63	192	5
TAP	63	288	5
TAP	64	0	5
TAP	64	192	3
TAP	64	192	4
TAP	65	0	3
TAP	65	0	4
TAP	65	192	2
TAP	65	288	2
TAP	66	0	2
TAP	66	192	1
TAP	66	288	1
TAP	67	0	1
TAP	67	192	0
TAP	67	192	7
TAP	68	0	0
TAP	68	0	7
TAP	68	192	0
TAP	68	288	7
BRK	69	0	0
TAP	69	192	1
TAP	69	288	1
TAP	70	0	1
TAP	70	192	2
TAP	70	288	2
TAP	71	0	2
TAP	71	192	3
TAP	71	288	3
TAP	72	0	3
TAP	72	192	3
TAP	72	192	4
BRK	73	0	3
BRK	73	0	4
TAP	73	192	5
TAP	73	288	5
TAP	74	0	5
TAP	74	192	6
TAP	74	288	6
TAP	75	0	6
TAP	75	192	0
TAP	75	192	7
TAP	76	0	0
TAP	76	0	7
STR	76	192	0
SI_	76	192	0	96	288	3
STR	78	192	7
SI_	78	192	7	96	288	4
XTP	80	192	0
XTP	80	192	7
TAP	81	0	7
TAP	81	192	6
TAP	82	0	6
TAP	82	192	5
TAP	83	0	5
TAP	83	192	4
TAP	83	288	4
TAP	84	0	3
TAP	84	0	4
TAP	84	192	3
TAP	85	0	3
TAP	85	192	2
TAP	86	0	2
TAP	86	192	1
TAP	87	0	1
TAP	87	192	0
TAP	87	288	0
TAP	88	0	0
TAP	88	0	7
HLD	88	192	0	192
HLD	88	192	7	192
TAP	89	192	0
TAP	89	288	7
TAP	90	0	0
BRK	90	96	7

T_REC_TAP	120
T_REC_BRK	8
T_REC_XTP	7
T_REC_HLD	5
T_REC_XHO	0
T_REC_STR	6
T_REC_BST	0
T_REC_XST	0
T_REC_TTP	12
T_REC_THO	1
T_REC_SLD	6
T_REC_ALL	165
T_NUM_TAP	145
T_NUM_BRK	8
T_NUM_HLD	6
T_NUM_SLD	6
T_NUM_ALL	165
T_JUDGE_TAP	153
T_JUDGE_HLD	48
T_JUDGE_SLD	6
T_JUDGE_ALL	207
TTM_EACHPAIRS	19
TTM_SCR_TAP	72500
TTM_SCR_BRK	20800
TTM_SCR_HLD	6000
TTM_SCR_SLD	9000
TTM_SCR_ALL	108300
TTM_SCR_S	104300
TTM_SCR_SS	107500
TTM_RAT_ACV	10074

