VERSION	0.00.00	1.03.00
FES_MODE	0
BPM_DEF	172.000	172.000	172.000	172.000
MET_DEF	4	4
RESOLUTION	384
CLK_DEF	384
COMPATIBLE_CODE	MA2

BPM	0	0	172.000
MET	0	0	4	4

HLD	2	0	1	672
HLD	2	0	7	1440
HLD	4	0	3	768
TAP	6	0	4
TAP	6	96	4
TAP	6	192	3
TAP	6	288	3
TAP	7	0	4
TAP	7	96	3
TAP	7	96	4
TAP	7	192	3
TAP	7	288	3
TAP	7	288	4
TAP	8	0	5
TAP	8	96	4
TAP	8	96	5
TAP	8	192	2
TAP	8	288	2
TAP	8	288	3
TAP	9	0	3
TAP	9	0	4
TAP	9	72	3
TAP	9	72	4
TAP	9	144	1
TAP	9	144	6
BRK	9	192	1
BRK	9	192	6
STR	10	0	1
SI_	10	0	1	96	48	6
TAP	10	0	3
TAP	10	96	4
STR	10	192	5
SI_	10	192	5	96	48	2
TAP	10	192	7
TAP	10	288	0
STR	11	0	1
SI_	11	0	1	96	48	6
TAP	11	0	3
STR	11	96	5
SI_	11	96	5	96	48	2
STR	11	192	0
SI_	11	192	0	96	48	4
TAP	11	288	5
TAP	12	0	0
STR	12	0	6
SI_	12	0	6	96	48	3
TAP	12	96	1
STR	12	192	2
SI_	12	192	2	96	48	7
TAP	12	192	4
TAP	12	288	5
TAP	13	0	0
STR	13	0	6
SI_	13	0	6	96	48	3
STR	13	96	2
SI_	13	96	2	96	48	7
TAP	13	192	6
TAP	13	288	1
TAP	13	288	4
HLD	14	0	2	96
TAP	14	0	6
TAP	14	96	3
TAP	14	144	3
TAP	14	168	2
XHO	14	192	4	72
HLD	14	264	5	72
HLD	14	336	6	48
XHO	15	0	7	72
HLD	15	72	0	72
HLD	15	144	1	48
XHO	15	192	2	72
HLD	15	264	3	72
HLD	15	336	4	48
TAP	16	0	6
TAP	16	96	1
TAP	16	96	4
HLD	16	192	6	72
HLD	16	264	2	72
HLD	16	336	3	48
STR	17	0	0
SCR	17	0	0	96	192	7
XST	18	0	3
SUR	18	0	3	96	288	4
THO	19	0	0	768	C	0	M1
XST	20	0	6
SCR	20	0	6	96	480	4
TAP	21	288	1
TAP	21	288	6
STR	22	0	6
SI_	22	0	6	96	48	3
STR	22	0	7
SI_	22	0	7	96	48	3
XTP	22	96	6
XTP	22	96	7
TAP	22	192	1
TAP	22	192	4
TAP	22	240	0
TAP	22	288	7
TAP	22	336	0
HLD	22	336	6	96
TAP	23	48	5
TAP	23	96	4
TAP	23	96	6
TAP	23	144	5
TAP	23	192	3
TAP	23	192	4
TAP	23	240	2
TAP	23	288	1
TAP	23	288	3
STR	24	0	0
SI_	24	0	0	96	48	4
STR	24	0	1
SI_	24	0	1	96	48	4
XTP	24	96	0
XTP	24	96	1
TAP	24	192	3
TAP	24	192	6
TAP	24	240	7
TAP	24	288	0
HLD	24	336	1	96
TAP	24	336	3
TAP	25	48	2
TAP	25	96	1
TAP	25	96	3
TAP	25	144	2
TAP	25	192	3
TAP	25	192	4
TAP	25	288	1
TAP	25	288	6
TAP	26	0	2
STR	26	0	4
SSL	26	0	4	96	384	0
TAP	26	96	1
TAP	26	192	1
TAP	26	288	1
TAP	27	0	1
TAP	27	96	2
TAP	27	192	2
TAP	27	192	7
TAP	27	288	1
TAP	27	288	4
STR	28	0	4
SXL	28	0	4	96	384	3
TAP	28	96	2
TAP	28	192	2
TAP	28	288	2
TAP	29	0	1
TAP	29	96	1
TAP	29	192	0
TAP	29	192	4
TAP	29	288	1
TAP	29	288	5
STR	30	0	6
SI_	30	0	6	96	48	3
STR	30	0	7
SI_	30	0	7	96	48	3
XTP	30	96	6
XTP	30	96	7
TAP	30	192	1
TAP	30	192	4
TAP	30	240	0
TAP	30	288	7
TAP	30	336	4
HLD	30	336	6	96
TAP	31	48	5
TAP	31	96	4
TAP	31	96	6
TAP	31	144	5
TAP	31	192	3
TAP	31	192	4
TAP	31	240	2
TAP	31	288	1
TAP	31	288	3
STR	32	0	1
SI_	32	0	1	96	48	4
STR	32	96	5
SI_	32	96	5	96	48	0
TAP	32	144	5
STR	32	240	3
SCL	32	240	3	96	192	4
HLD	32	336	7	240
TAP	33	288	2
TAP	33	288	6
HLD	34	0	2	72
TAP	34	72	3
TAP	34	144	1
TAP	34	144	4
STR	34	192	1
SI_	34	192	1	96	48	3
STR	34	192	4
SI_	34	192	4	96	48	0
HLD	35	0	5	72
TAP	35	72	4
TAP	35	144	3
TAP	35	144	6
HLD	35	192	2	72
TAP	35	264	3
TAP	35	336	1
TAP	35	336	4
HLD	36	0	1	72
TAP	36	72	0
TAP	36	144	2
TAP	36	144	7
HLD	36	192	6	72
TAP	36	264	7
TAP	36	336	1
TAP	36	336	5
STR	37	0	3
SXR	37	0	3	96	144	4
STR	37	0	7
SXR	37	0	7	96	144	0
TAP	37	288	1
TAP	37	288	5
STR	38	0	0
SCR	38	0	0	96	96	3
STR	38	96	3
SCR	38	96	3	96	96	6
STR	38	192	6
SCR	38	192	6	96	96	1
STR	38	288	1
SXR	38	288	1	96	192	4
HLD	39	0	5	192
TAP	39	288	0
TAP	39	288	6
STR	40	0	5
SI_	40	0	5	96	48	0
STR	40	96	1
SI_	40	96	1	96	48	4
TAP	40	144	1
TAP	40	240	6
TAP	40	336	0
TAP	40	336	7
TAP	41	0	1
TAP	41	0	6
TAP	41	48	1
TAP	41	48	6
TAP	41	96	7
TAP	41	120	0
TAP	41	144	7
TAP	41	168	0
TAP	41	192	6
TAP	41	216	1
TAP	41	240	6
TAP	41	264	1
TAP	41	288	7
TAP	41	312	0
TAP	41	336	7
TAP	41	360	0
TAP	42	0	7
TAP	42	48	1
TAP	42	48	6
TAP	42	96	1
TAP	42	96	6
TTP	42	192	0	C	1	M1
TTP	42	192	2	B	0	M1
TTP	42	192	3	B	0	M1
TTP	42	192	3	E	0	M1
TTP	42	192	6	B	0	M1
TTP	42	192	7	B	0	M1
TTP	42	192	7	E	0	M1
TAP	43	0	1
STR	43	0	6
SI_	43	0	6	96	48	3
TAP	43	96	6
TAP	43	96	7
TAP	43	144	0
STR	43	192	1
SI_	43	192	1	96	48	4
TAP	43	288	0
TAP	43	288	1
TAP	43	336	7
XTP	44	0	4
XTP	44	0	6
STR	44	72	6
SCL	44	72	6	96	48	3
STR	44	72	7
SCR	44	72	7	96	48	2
TAP	44	144	0
TAP	44	144	5
TTP	44	192	0	E	0	M1
TTP	44	192	6	E	0	M1
TTP	44	204	4	E	0	M1
TTP	44	204	5	E	0	M1
TTP	44	216	1	E	0	M1
TTP	44	216	2	E	0	M1
BRK	44	288	0
BRK	44	288	5
HLD	45	0	1	144
TAP	45	0	4
TAP	45	96	3
TAP	45	144	4
HLD	45	192	5	144
TAP	45	264	7
STR	45	336	1
SXL	45	336	1	96	144	5
HLD	46	0	1	192
TAP	46	288	6
TAP	46	288	7
TAP	46	336	0
TAP	47	0	1
TAP	47	0	3
HLD	47	96	7	96
XTP	47	144	4
XTP	47	168	3
XST	47	192	2
SLL	47	192	2	96	96	4
TAP	47	264	7
TAP	47	336	6
STR	48	0	5
SLR	48	0	5	96	96	3
TAP	48	72	0
TAP	48	144	1
TTP	48	192	0	B	0	M1
TTP	48	192	0	E	0	M1
TTP	48	192	7	B	0	M1
TTP	48	288	3	B	0	M1
TTP	48	288	4	B	0	M1
TTP	48	288	4	E	0	M1
STR	49	0	2
SI_	49	0	2	96	48	7
STR	49	0	6
SI_	49	0	6	96	48	3
BRK	49	96	2
BRK	49	96	6
STR	49	192	1
SI_	49	192	1	96	48	4
STR	49	192	5
SI_	49	192	5	96	48	0
BRK	49	288	1
BRK	49	288	5
TAP	50	0	3
TAP	50	0	7
TAP	50	72	1
TAP	50	72	4
BRK	50	144	2
BRK	50	144	6
TAP	50	288	0
TAP	50	288	7
STR	51	0	1
SCR	51	0	1	96	48	4
TAP	51	0	6
TAP	51	96	0
TAP	51	96	1
TAP	51	144	7
STR	51	192	6
SCL	51	192	6	96	48	3
TAP	51	288	6
TAP	51	288	7
TAP	51	336	0
XTP	52	0	1
XTP	52	0	3
STR	52	72	0
SCL	52	72	0	96	48	5
STR	52	72	1
SCR	52	72	1	96	48	4
TAP	52	144	2
TAP	52	144	7
TTP	52	192	0	E	0	M1
TTP	52	192	2	E	0	M1
TTP	52	204	3	E	0	M1
TTP	52	204	4	E	0	M1
TTP	52	216	6	E	0	M1
TTP	52	216	7	E	0	M1
BRK	52	288	2
BRK	52	288	7
TAP	53	0	3
HLD	53	0	6	144
TAP	53	96	4
TAP	53	144	3
HLD	53	192	2	144
TAP	53	264	0
STR	53	336	5
SXR	53	336	5	96	144	0
HLD	54	0	5	192
TAP	54	288	0
TAP	54	288	1
TAP	54	336	2
TAP	55	0	3
TAP	55	0	5
HLD	55	96	3	96
XTP	55	144	0
XTP	55	168	7
XST	55	192	6
SLL	55	192	6	96	96	0
TAP	55	264	1
TAP	55	336	2
STR	56	0	3
SLL	56	0	3	96	96	5
TAP	56	72	7
TAP	56	144	6
TTP	56	192	0	B	0	M1
TTP	56	192	0	E	0	M1
TTP	56	192	7	B	0	M1
TTP	56	288	3	B	0	M1
TTP	56	288	4	B	0	M1
TTP	56	288	4	E	0	M1
STR	57	0	5
SCR	57	0	5	96	48	0
STR	57	0	7
SI_	57	0	7	96	48	3
TAP	57	192	4
TAP	57	192	6
TAP	57	264	1
TAP	57	264	3
TAP	57	336	0
TAP	57	336	7
STR	58	0	0
SXL	58	0	0	96	144	3
STR	58	0	7
SXR	58	0	7	96	144	4
BRK	58	288	1
BRK	58	288	6
HLD	59	0	6	288
STR	59	0	7
SCL	59	0	7	96	576	1
HLD	60	0	7	288
STR	61	0	0
SCR	61	0	0	96	576	6
HLD	61	0	1	288
HLD	62	0	0	288
TTP	63	0	0	C	0	M1
STR	63	0	2
SCL	63	0	2	96	192	6
SCR	63	0	2	96	192	6
TTP	64	0	0	C	0	M1
STR	64	0	5
SCL	64	0	5	96	192	1
SCR	64	0	5	96	192	1
BRK	65	0	1
BRK	65	0	5
TAP	65	96	2
TAP	65	96	3
BRK	65	144	0
BRK	65	144	4
TAP	65	240	4
TAP	65	240	5
BRK	65	288	3
BRK	65	288	7
TAP	66	0	6
TAP	66	0	7
TAP	66	96	0
TAP	66	96	6
HLD	66	144	2	96
HLD	66	144	3	96
TAP	66	288	1
TAP	66	288	5
HLD	67	0	5	288
STR	67	0	7
SCL	67	0	7	96	552	1
HLD	68	0	7	288
STR	69	0	0
SCR	69	0	0	96	576	6
HLD	69	0	2	288
TTP	70	0	3	B	0	M1
TTP	70	0	4	B	0	M1
TTP	70	144	0	B	0	M1
TTP	70	144	7	B	0	M1
HLD	71	0	2	72
HLD	71	72	1	72
TAP	71	144	0
STR	71	192	7
SI_	71	192	7	96	48	2
SI_	71	192	7	96	48	4
HLD	72	0	5	72
HLD	72	72	6	72
TAP	72	144	7
STR	72	192	0
SI_	72	192	0	96	48	3
SI_	72	192	0	96	48	5
STR	73	0	7
SCL	73	0	7	96	96	4
STR	73	96	4
SCL	73	96	4	96	96	1
STR	73	192	1
SCL	73	192	1	96	96	6
STR	73	288	6
SXL	73	288	6	96	192	3
HLD	74	0	2	192
TAP	74	288	1
TAP	74	288	5
STR	75	0	1
SI_	75	0	1	96	48	4
STR	75	96	5
SI_	75	96	5	96	48	0
TAP	75	144	5
TAP	75	240	2
TAP	75	336	3
TAP	75	336	4
TAP	76	0	1
TAP	76	0	6
TAP	76	48	1
TAP	76	48	6
TAP	76	96	3
TAP	76	120	4
TAP	76	144	3
TAP	76	168	4
TAP	76	192	2
TAP	76	216	5
TAP	76	240	2
TAP	76	264	5
TAP	76	288	3
TAP	76	312	4
TAP	76	336	3
TAP	76	360	4
TAP	77	0	3
TAP	77	48	2
TAP	77	48	5
TAP	77	96	2
TAP	77	96	5
BRK	77	192	1
BRK	77	192	6
THO	78	0	0	1152	C	0	M1
HLD	82	0	0	576
TAP	82	0	3
TTP	82	192	6	E	0	M1
TTP	82	204	5	B	0	M1
TTP	82	216	4	B	0	M1
TTP	83	0	2	E	0	M1
TTP	83	12	2	B	0	M1
TTP	83	24	3	B	0	M1
TTP	83	192	3	B	0	M1
TTP	83	192	4	B	0	M1
TTP	83	192	4	E	0	M1
TTP	83	288	0	B	0	M1
TTP	83	288	0	E	0	M1
TTP	83	288	7	B	0	M1
STR	84	0	1
SI_	84	0	1	96	48	4
STR	84	0	4
SI_	84	0	4	96	48	0
BRK	84	96	1
BRK	84	96	4
STR	84	192	3
SI_	84	192	3	96	48	7
STR	84	192	6
SI_	84	192	6	96	48	3
BRK	84	288	3
BRK	84	288	6
TAP	85	0	0
TAP	85	0	4
TAP	85	72	2
TAP	85	72	6
TAP	85	144	0
TAP	85	144	4
BRK	85	192	0
BRK	85	192	4
TAP	85	288	1
TAP	85	288	6
STR	86	0	0
SI_	86	0	0	96	48	4
TAP	86	0	1
TAP	86	96	0
TAP	86	96	5
TAP	86	144	6
TAP	86	192	3
STR	86	192	7
SI_	86	192	7	96	48	3
TAP	86	288	2
TAP	86	288	7
TAP	86	336	1
TAP	87	0	0
TAP	87	0	4
STR	87	72	6
SCL	87	72	6	96	48	3
STR	87	72	7
SCR	87	72	7	96	48	2
TAP	87	144	0
TAP	87	144	5
TTP	87	192	0	E	0	M1
TTP	87	192	6	E	0	M1
TTP	87	204	4	E	0	M1
TTP	87	204	5	E	0	M1
TTP	87	216	1	E	0	M1
TTP	87	216	2	E	0	M1
BRK	87	288	0
BRK	87	288	5
TAP	88	0	4
HLD	88	0	6	144
TAP	88	96	4
TAP	88	144	3
HLD	88	192	2	192
TAP	88	264	0
STR	88	336	7
SXR	88	336	7	96	144	2
HLD	89	0	7	192
TAP	89	288	2
TAP	89	288	3
TAP	89	336	1
TAP	90	0	0
TAP	90	0	6
HLD	90	96	5	96
XTP	90	144	7
XTP	90	168	0
XST	90	192	1
SUR	90	192	1	96	96	7
XTP	90	264	3
XTP	90	336	4
XST	91	0	5
SUR	91	0	5	96	96	3
XTP	91	72	0
XTP	91	144	1
TTP	91	192	0	B	0	M1
TTP	91	192	0	E	0	M1
TTP	91	192	7	B	0	M1
TTP	91	288	2	B	0	M1
TTP	91	288	2	E	0	M1
TTP	91	288	5	B	0	M1
TTP	91	288	6	E	0	M1
STR	92	0	0
SI_	92	0	0	96	48	3
STR	92	0	4
SI_	92	0	4	96	48	7
BRK	92	96	0
BRK	92	96	4
STR	92	192	1
SI_	92	192	1	96	48	6
STR	92	192	5
SI_	92	192	5	96	48	2
BRK	92	288	1
BRK	92	288	5
STR	93	0	3
SXL	93	0	3	96	192	6
STR	93	0	7
SXL	93	0	7	96	192	2
TTP	94	0	0	B	0	M1
TTP	94	0	0	C	1	M1
TTP	94	0	2	B	0	M1
TTP	94	0	4	B	0	M1
TTP	94	0	6	B	0	M1
TTP	94	192	0	C	1	M1
TTP	94	192	1	B	0	M1
TTP	94	192	3	B	0	M1
TTP	94	192	5	B	0	M1
TTP	94	192	7	B	0	M1
STR	95	0	0
SCR	95	0	0	96	144	6
HLD	95	0	4	192
TAP	95	288	0
TAP	95	288	4
BRK	96	0	2
BRK	96	0	6

T_REC_TAP	279
T_REC_BRK	36
T_REC_XTP	20
T_REC_HLD	51
T_REC_XHO	3
T_REC_STR	81
T_REC_BST	0
T_REC_XST	6
T_REC_TTP	72
T_REC_THO	2
T_REC_SLD	91
T_REC_ALL	641
T_NUM_TAP	458
T_NUM_BRK	36
T_NUM_HLD	56
T_NUM_SLD	91
T_NUM_ALL	641
T_JUDGE_TAP	494
T_JUDGE_HLD	258
T_JUDGE_SLD	91
T_JUDGE_ALL	843
TTM_EACHPAIRS	143
TTM_SCR_TAP	229000
TTM_SCR_BRK	93600
TTM_SCR_HLD	56000
TTM_SCR_SLD	136500
TTM_SCR_ALL	515100
TTM_SCR_S	496200
TTM_SCR_SS	511500
TTM_RAT_ACV	10070

