VERSION	0.00.00	1.03.00
FES_MODE	0
BPM_DEF	172.000	172.000	172.000	172.000
MET_DEF	4	4
RESOLUTION	384
CLK_DEF	384
COMPATIBLE_CODE	MA2

BPM	0	0	172.000
MET	0	0	4	4

THO	2	0	0	1152	C	0	M1
TTP	2	0	1	B	0	M1
TTP	2	0	2	B	0	M1
TTP	2	0	5	B	0	M1
TTP	2	0	6	B	0	M1
TAP	6	0	2
TAP	6	96	2
TAP	6	192	3
TAP	6	288	3
TAP	7	0	4
TAP	7	96	4
TAP	7	192	5
TAP	7	288	5
HLD	8	0	2	96
TAP	8	96	3
HLD	8	192	5	96
STR	8	288	4
SI_	8	288	4	96	96	0
BRK	9	192	1
BRK	9	192	7
TAP	10	0	2
TAP	10	96	3
TAP	10	192	2
TAP	10	288	1
TAP	10	288	4
TAP	11	0	5
TAP	11	96	4
TAP	11	192	5
TAP	11	288	3
TAP	11	288	6
TAP	12	0	1
TAP	12	96	0
TAP	12	192	1
STR	12	288	2
SCL	12	288	2	96	192	5
TAP	12	288	7
TAP	13	288	0
TAP	13	288	7
HLD	14	0	1	96
HLD	14	0	3	96
HLD	14	192	4	96
HLD	14	192	6	96
TAP	15	0	1
TAP	15	0	3
TAP	15	96	3
TAP	15	96	4
XTP	15	192	4
XTP	15	192	6
XTP	15	288	4
XTP	15	288	6
TAP	16	0	7
TAP	16	96	0
TAP	16	96	6
TAP	16	192	5
TAP	16	288	4
STR	16	288	5
SUR	16	288	5	96	192	2
TAP	17	288	3
TAP	17	288	4
HLD	18	0	1	576
BRK	18	0	6
TAP	19	0	2
TAP	19	192	3
STR	20	0	4
SCR	20	0	4	96	192	7
HLD	21	0	0	192
TAP	21	192	7
TAP	21	288	1
TAP	21	288	6
TAP	22	0	2
TAP	22	0	3
TAP	22	96	1
TAP	22	96	4
TAP	22	192	3
TAP	22	240	3
TAP	22	288	4
TAP	23	0	4
TAP	23	0	5
TAP	23	96	3
TAP	23	96	6
TAP	23	192	4
TAP	23	240	4
TAP	23	288	3
TAP	24	0	2
TAP	24	96	1
TAP	24	96	3
TAP	24	192	5
TAP	24	288	4
TAP	24	288	6
HLD	25	0	3	96
HLD	25	0	5	96
TAP	25	192	2
TAP	25	192	4
TAP	25	288	3
TAP	25	288	4
TAP	26	0	5
TAP	26	96	4
TAP	26	96	5
TAP	26	192	2
TAP	26	288	2
TAP	26	288	3
HLD	27	0	5	288
TAP	27	96	4
TAP	27	192	6
TAP	27	288	4
TAP	28	0	2
TAP	28	96	2
TAP	28	96	3
TAP	28	192	5
TAP	28	288	4
TAP	28	288	5
HLD	29	0	1	192
TAP	29	96	0
TAP	29	192	0
BRK	29	288	7
TAP	30	0	4
TAP	30	0	6
TAP	30	96	4
TAP	30	96	5
TAP	30	192	2
TAP	30	240	2
TAP	30	288	3
TAP	31	0	1
TAP	31	0	3
TAP	31	96	2
TAP	31	96	3
TAP	31	192	5
TAP	31	240	5
TAP	31	288	4
HLD	32	0	2	96
HLD	32	0	3	96
TAP	32	144	2
TAP	32	144	3
STR	32	240	0
SUL	32	240	0	96	144	4
SUR	32	240	0	96	144	4
TAP	32	240	1
XTP	33	192	6
XTP	33	288	6
HLD	34	0	4	192
TAP	34	0	5
TTP	34	192	5	E	0	M1
TTP	34	288	6	E	0	M1
TTP	35	0	7	E	0	M1
TTP	35	96	0	E	0	M1
TTP	35	192	1	E	0	M1
TTP	35	192	2	E	0	M1
HLD	36	0	2	192
TAP	36	0	3
TTP	36	192	3	E	0	M1
TTP	36	288	5	E	0	M1
THO	37	0	0	192	C	0	M1
TTP	37	0	1	B	0	M1
TTP	37	0	6	B	0	M1
HLD	38	0	0	96
HLD	38	0	1	96
HLD	38	192	6	96
HLD	38	192	7	96
TTP	39	0	0	E	0	M1
TTP	39	96	0	C	0	M1
TTP	39	192	3	E	0	M1
TTP	39	192	5	E	0	M1
TAP	40	0	0
TAP	40	0	7
TAP	40	96	1
TAP	40	96	3
TAP	40	144	1
TAP	40	144	3
TAP	40	240	4
STR	40	240	5
SCR	40	240	5	96	288	2
BRK	40	336	3
TAP	42	0	3
TAP	42	48	4
TAP	42	96	3
BRK	42	192	1
BRK	42	192	6
TAP	43	0	0
STR	43	0	1
SI_	43	0	1	96	48	4
STR	43	192	6
SI_	43	192	6	96	48	3
TAP	43	192	7
HLD	44	0	1	72
HLD	44	72	2	72
TAP	44	144	3
TAP	44	192	3
TAP	44	192	4
TAP	44	288	5
TAP	44	336	5
TAP	45	0	4
TAP	45	96	3
TAP	45	96	6
HLD	45	192	5	72
HLD	45	264	6	72
TAP	45	336	7
TAP	46	0	0
TAP	46	0	7
TAP	46	96	0
TAP	46	96	7
BRK	46	192	2
BRK	46	192	5
STR	47	0	6
SI_	47	0	6	96	48	3
TAP	47	0	7
TAP	47	192	0
STR	47	192	1
SI_	47	192	1	96	48	4
HLD	48	0	6	72
HLD	48	72	5	72
TAP	48	144	4
XTP	48	192	3
XTP	48	192	4
XTP	48	288	1
XTP	48	288	6
HLD	49	0	2	96
TAP	49	0	3
TAP	49	96	0
HLD	49	192	6	96
TAP	49	192	7
TAP	49	288	4
XTP	50	0	1
XTP	50	0	7
XTP	50	72	0
XTP	50	72	6
XTP	50	144	1
XTP	50	144	5
TAP	50	240	3
TAP	50	288	3
TAP	50	288	4
TAP	51	0	4
STR	51	0	5
SI_	51	0	5	96	48	0
STR	51	192	2
SI_	51	192	2	96	48	7
TAP	51	192	3
HLD	52	0	5	72
HLD	52	72	6	72
TAP	52	144	7
TAP	52	192	0
TAP	52	192	7
TAP	52	288	1
TAP	52	336	1
TAP	53	0	0
TAP	53	96	2
TAP	53	96	7
HLD	53	192	1	72
HLD	53	264	2	72
TAP	53	336	3
TAP	54	0	3
TAP	54	0	4
TAP	54	96	3
TAP	54	96	4
BRK	54	192	1
BRK	54	192	6
STR	55	0	2
SI_	55	0	2	96	48	7
TAP	55	0	3
TAP	55	192	4
STR	55	192	5
SI_	55	192	5	96	48	0
HLD	56	0	2	72
HLD	56	72	1	72
TAP	56	144	0
TAP	56	192	0
TAP	56	192	7
TAP	56	288	1
TAP	56	288	6
TAP	57	0	2
TAP	57	0	4
TAP	57	96	3
TAP	57	96	5
HLD	57	192	2	72
TAP	57	264	3
TAP	57	336	1
TAP	57	336	4
STR	58	0	1
SI_	58	0	1	96	48	5
TAP	58	0	4
BRK	58	192	0
BRK	58	192	6
HLD	59	0	2	144
HLD	59	0	3	144
TAP	59	192	2
TAP	59	192	3
STR	59	288	1
SCR	59	288	1	96	144	4
TAP	59	288	4
TTP	60	192	6	B	0	M1
TTP	60	192	7	B	0	M1
HLD	61	0	4	144
HLD	61	0	5	144
TAP	61	192	4
TAP	61	192	5
STR	61	288	3
SUR	61	288	3	96	144	0
TAP	61	288	6
XTP	62	192	7
XTP	62	288	7
HLD	63	0	6	192
TAP	63	144	4
TAP	63	192	4
TAP	63	288	3
TAP	63	288	5
HLD	64	0	1	192
TAP	64	144	3
TAP	64	192	3
TAP	64	288	2
TAP	64	288	4
HLD	65	0	3	96
HLD	65	0	5	96
HLD	65	144	2	96
HLD	65	144	4	96
XTP	65	288	1
XTP	65	288	5
TAP	66	0	2
TAP	66	96	3
TAP	66	96	4
TAP	66	192	5
TAP	66	240	4
TAP	66	288	5
HLD	67	0	6	192
TAP	67	144	7
TAP	67	192	7
TAP	67	288	0
STR	67	288	5
SCR	67	288	5	96	144	0
TTP	68	192	2	B	0	M1
TTP	68	192	3	B	0	M1
HLD	69	0	1	192
TAP	69	144	0
TAP	69	192	0
TAP	69	288	2
TAP	69	288	7
HLD	70	0	3	96
HLD	70	0	5	96
TAP	70	144	3
TAP	70	144	5
TAP	70	240	1
BRK	70	288	1
BRK	70	288	7
HLD	71	0	6	72
HLD	71	72	4	120
TAP	71	144	5
TAP	71	192	5
TAP	71	288	3
TAP	71	288	4
HLD	72	0	2	72
HLD	72	72	3	120
TAP	72	144	1
TAP	72	192	1
TAP	72	288	0
TAP	72	288	7
HLD	73	0	6	288
TAP	73	96	7
TAP	73	192	5
TAP	73	288	4
HLD	74	0	2	288
TAP	74	96	3
TAP	74	192	1
TAP	74	288	0
TAP	75	0	0
TAP	75	0	7
TAP	75	96	4
TAP	75	96	6
TAP	75	144	4
TAP	75	144	6
STR	75	240	1
SCL	75	240	1	96	288	4
TAP	75	240	3
BRK	75	336	7
TAP	77	0	0
TAP	77	48	7
TAP	77	96	0
XTP	77	192	2
XTP	77	192	5
HLD	78	0	3	384
HLD	78	0	4	1152
TAP	79	192	2
HLD	80	0	3	768
TAP	81	192	5
TAP	82	0	5
TAP	82	192	2
TAP	82	192	4
XTP	83	0	0
XTP	83	0	7
XTP	83	72	1
XTP	83	72	6
XTP	83	144	2
XTP	83	144	5
XTP	83	192	2
XTP	83	192	5
XTP	83	288	0
XTP	83	288	7
HLD	84	0	1	96
HLD	84	96	3	96
HLD	84	192	4	96
STR	84	288	6
SXL	84	288	6	96	192	3
BRK	85	0	3
XTP	85	288	2
XTP	85	288	4
STR	86	0	0
SI_	86	0	0	96	48	4
STR	86	0	1
SI_	86	0	1	96	48	4
STR	86	192	6
SI_	86	192	6	96	48	3
STR	86	192	7
SI_	86	192	7	96	48	3
HLD	87	0	2	72
HLD	87	72	1	72
TAP	87	144	0
TAP	87	192	6
TAP	87	192	7
TAP	87	288	5
TAP	87	336	5
TAP	88	0	4
TAP	88	96	2
TAP	88	96	7
HLD	88	192	6	72
HLD	88	264	5	72
TAP	88	336	4
TAP	89	0	2
TAP	89	0	3
TAP	89	96	2
TAP	89	96	3
BRK	89	192	0
BRK	89	192	5
STR	90	0	0
SI_	90	0	0	96	48	4
STR	90	0	1
SI_	90	0	1	96	48	5
STR	90	192	6
SI_	90	192	6	96	48	2
STR	90	192	7
SI_	90	192	7	96	48	3
HLD	91	0	1	72
HLD	91	72	2	72
TAP	91	144	3
XTP	91	192	4
XTP	91	192	5
BRK	91	288	1
BRK	91	288	6
HLD	92	0	5	96
HLD	92	96	7	96
HLD	92	192	0	96
STR	92	288	2
SCL	92	288	2	96	192	4
TAP	93	288	2
TAP	93	288	3
HLD	94	0	0	96
HLD	94	0	1	96
HLD	94	192	6	72
HLD	94	264	5	72
TAP	94	336	4
TAP	95	0	2
STR	95	0	3
SI_	95	0	3	96	48	7
TAP	95	192	0
TAP	95	192	6
TAP	95	288	2
TAP	95	288	4
TTP	96	0	0	C	1	M1
TTP	96	0	1	B	0	M1
TTP	96	0	5	B	0	M1

T_REC_TAP	247
T_REC_BRK	21
T_REC_XTP	36
T_REC_HLD	74
T_REC_XHO	0
T_REC_STR	30
T_REC_BST	0
T_REC_XST	0
T_REC_TTP	25
T_REC_THO	2
T_REC_SLD	31
T_REC_ALL	466
T_NUM_TAP	338
T_NUM_BRK	21
T_NUM_HLD	76
T_NUM_SLD	31
T_NUM_ALL	466
T_JUDGE_TAP	359
T_JUDGE_HLD	262
T_JUDGE_SLD	31
T_JUDGE_ALL	652
TTM_EACHPAIRS	126
TTM_SCR_TAP	169000
TTM_SCR_BRK	54600
TTM_SCR_HLD	76000
TTM_SCR_SLD	46500
TTM_SCR_ALL	346100
TTM_SCR_S	333700
TTM_SCR_SS	344000
TTM_RAT_ACV	10061

