VERSION	0.00.00	1.03.00
FES_MODE	0
BPM_DEF	172.000	172.000	172.000	172.000
MET_DEF	4	4
RESOLUTION	384
CLK_DEF	384
COMPATIBLE_CODE	MA2

BPM	0	0	172.000
MET	0	0	4	4

XHO	2	0	2	768
HLD	4	0	4	768
TAP	6	0	2
TAP	6	192	2
TAP	7	0	1
TAP	7	192	1
TAP	8	0	0
TAP	8	192	0
TAP	9	0	0
TAP	9	0	7
TAP	9	96	0
TAP	9	96	7
BRK	9	192	1
BRK	9	192	6
TAP	10	0	1
TAP	10	96	1
TAP	10	192	0
TAP	10	192	1
TAP	11	0	6
TAP	11	96	6
TAP	11	192	6
TAP	11	192	7
TAP	12	0	1
TAP	12	96	1
TAP	12	192	0
TAP	12	192	1
TAP	13	0	7
TAP	13	96	7
TAP	13	192	0
TAP	13	192	6
TAP	14	0	5
TAP	14	96	5
TAP	14	192	4
TAP	14	192	5
TAP	15	0	2
TAP	15	96	2
TAP	15	192	2
TAP	15	192	3
TAP	16	0	4
TAP	16	96	4
TAP	16	192	3
TAP	16	288	3
XTP	17	0	3
XTP	17	0	4
XTP	17	96	3
XTP	17	96	4
XTP	17	192	2
XTP	17	192	5
STR	18	0	1
SCR	18	0	1	96	432	5
STR	20	0	7
SCL	20	0	7	96	432	3
TAP	22	0	2
TAP	22	96	2
TAP	22	192	3
TAP	23	0	5
TAP	23	96	5
TAP	23	192	4
TAP	24	0	2
TAP	24	96	2
TAP	24	192	3
TAP	24	288	3
TAP	25	0	4
TAP	25	96	4
TAP	25	192	3
TAP	25	192	5
STR	26	0	6
SI_	26	0	6	96	144	2
STR	27	0	1
SI_	27	0	1	96	144	5
STR	28	0	7
SI_	28	0	7	96	144	4
STR	29	0	3
SI_	29	0	3	96	144	0
TAP	30	0	6
TAP	30	96	6
TAP	30	192	7
TAP	31	0	1
TAP	31	96	1
TAP	31	192	0
TAP	32	0	6
TAP	32	96	6
TAP	32	192	7
TAP	32	288	7
XTP	33	0	0
XTP	33	0	7
XTP	33	96	0
XTP	33	96	7
XTP	33	192	1
XTP	33	192	6
TTP	34	0	1	B	0	L1
TTP	34	192	2	B	0	L1
TTP	35	0	3	B	0	L1
TTP	35	192	4	B	0	L1
TTP	36	0	5	B	0	L1
TTP	36	192	6	B	0	L1
TTP	37	0	0	C	0	L1
XTP	38	0	1
TAP	38	192	0
TAP	38	192	1
TAP	39	0	6
TAP	39	192	6
TAP	39	192	7
TAP	40	0	1
TAP	40	96	1
TAP	40	192	0
TAP	40	192	1
TAP	41	0	6
TAP	41	96	6
TAP	41	192	6
TAP	41	192	7
TAP	42	0	0
TAP	42	0	7
TAP	42	96	0
TAP	42	96	7
BRK	42	192	1
BRK	42	192	6
TAP	43	0	1
TAP	43	96	1
TAP	43	192	0
TAP	43	288	0
TAP	44	0	7
TAP	44	96	7
TAP	44	192	0
TAP	44	192	6
TAP	45	0	5
TAP	45	96	5
TAP	45	192	4
TAP	45	288	4
TAP	46	0	3
TAP	46	96	3
TAP	46	192	2
TAP	46	192	4
TAP	47	0	1
TAP	47	96	1
TAP	47	192	0
TAP	47	288	0
TAP	48	0	7
TAP	48	96	7
TAP	48	192	1
TAP	48	192	6
TAP	49	0	1
TAP	49	96	0
TAP	49	96	1
TAP	49	192	6
TAP	49	288	6
TAP	49	288	7
TAP	50	0	0
TAP	50	96	0
TAP	50	96	7
TAP	50	192	1
TAP	50	192	6
TAP	51	0	6
TAP	51	96	6
TAP	51	192	7
TAP	51	288	7
TAP	52	0	0
TAP	52	96	0
TAP	52	192	1
TAP	52	192	7
TAP	53	0	2
TAP	53	96	2
TAP	53	192	3
TAP	53	288	3
TAP	54	0	4
TAP	54	96	4
TAP	54	192	3
TAP	54	192	5
TAP	55	0	6
TAP	55	96	6
TAP	55	192	7
TAP	55	288	7
TAP	56	0	0
TAP	56	96	0
TAP	56	192	1
TAP	56	288	1
STR	57	0	2
SI_	57	0	2	96	144	7
TAP	57	0	4
XHO	58	0	0	192
XHO	58	0	7	192
STR	59	0	1
SCR	59	0	1	96	384	6
STR	61	0	6
SCL	61	0	6	96	384	1
STR	63	0	0
SCR	63	0	0	96	144	3
STR	64	0	4
SCR	64	0	4	96	144	7
STR	65	0	0
SCR	65	0	0	96	144	3
XHO	66	0	4	192
STR	67	0	3
SI_	67	0	3	96	144	0
STR	68	0	7
SI_	68	0	7	96	144	3
STR	69	0	1
SI_	69	0	1	96	144	5
STR	70	0	6
SCL	70	0	6	96	144	3
TAP	71	0	2
TAP	71	192	1
TAP	72	0	0
TAP	72	192	7
TAP	73	0	6
TAP	73	96	6
TAP	73	192	6
TAP	73	192	7
TAP	74	0	1
TAP	74	96	1
TAP	74	192	0
TAP	74	192	1
TAP	75	0	6
TAP	75	96	6
TAP	75	192	6
TAP	75	192	7
TAP	76	0	0
TAP	76	96	0
TAP	76	192	7
TAP	76	288	7
TAP	77	0	1
TAP	77	0	6
THO	78	0	0	1152	C	0	L1
TAP	82	0	1
TAP	82	0	6
TAP	82	192	2
TAP	82	192	5
TAP	83	0	1
TAP	83	0	6
TAP	83	192	0
TAP	83	192	7
TAP	84	0	6
TAP	84	96	6
TAP	84	96	7
TAP	84	192	1
TAP	84	288	0
TAP	84	288	1
TAP	85	0	7
TAP	85	96	0
TAP	85	192	1
TAP	85	192	6
TAP	86	0	1
TAP	86	96	1
TAP	86	192	0
TAP	86	192	1
TAP	86	288	0
TAP	86	288	1
TAP	87	0	2
TAP	87	96	2
TAP	87	192	1
TAP	87	192	3
TAP	88	0	5
TAP	88	96	5
TAP	88	192	4
TAP	88	192	5
TAP	88	288	4
TAP	88	288	5
TAP	89	0	6
TAP	89	96	6
TAP	89	192	5
TAP	89	192	7
TAP	90	0	1
TAP	90	96	1
TAP	90	192	0
TAP	90	192	1
TAP	90	288	0
TAP	90	288	1
XTP	91	0	2
XTP	91	96	3
XTP	91	192	4
XTP	91	288	5
XTP	92	0	4
XTP	92	0	6
XTP	92	192	1
XTP	92	192	3
XTP	93	0	2
XTP	93	0	5
STR	94	0	3
SI_	94	0	3	96	144	7
STR	94	0	4
SI_	94	0	4	96	144	0
STR	95	0	0
SI_	95	0	0	96	144	4
STR	95	0	7
SI_	95	0	7	96	144	3
XTP	96	0	2
XTP	96	0	5

T_REC_TAP	205
T_REC_BRK	4
T_REC_XTP	25
T_REC_HLD	1
T_REC_XHO	4
T_REC_STR	20
T_REC_BST	0
T_REC_XST	0
T_REC_TTP	7
T_REC_THO	1
T_REC_SLD	20
T_REC_ALL	287
T_NUM_TAP	257
T_NUM_BRK	4
T_NUM_HLD	6
T_NUM_SLD	20
T_NUM_ALL	287
T_JUDGE_TAP	261
T_JUDGE_HLD	68
T_JUDGE_SLD	20
T_JUDGE_ALL	349
TTM_EACHPAIRS	59
TTM_SCR_TAP	128500
TTM_SCR_BRK	10400
TTM_SCR_HLD	6000
TTM_SCR_SLD	30000
TTM_SCR_ALL	174900
TTM_SCR_S	169300
TTM_SCR_SS	174500
TTM_RAT_ACV	10022

