VERSION	0.00.00	1.03.00
FES_MODE	0
BPM_DEF	172.000	172.000	172.000	172.000
MET_DEF	4	4
RESOLUTION	384
CLK_DEF	384
COMPATIBLE_CODE	MA2

BPM	0	0	172.000
MET	0	0	4	4

TAP	10	0	0
TAP	11	0	0
HLD	12	0	1	384
TAP	14	0	2
TAP	15	0	2
TAP	16	0	3
TAP	16	192	3
TAP	17	0	3
TAP	17	0	4
HLD	18	0	4	384
HLD	20	0	3	384
TAP	22	0	4
TAP	23	0	4
TAP	24	0	5
TAP	25	0	5
TAP	26	0	6
TAP	27	0	6
TAP	28	0	7
TAP	29	0	7
TAP	30	0	0
TAP	31	0	0
TAP	32	0	7
XTP	33	0	0
XTP	33	0	7
TTP	34	0	6	B	0	L1
TTP	35	0	5	B	0	L1
TTP	36	0	4	B	0	L1
TTP	37	0	3	B	0	L1
TTP	38	0	2	B	0	L1
TTP	39	0	1	B	0	L1
TTP	40	0	0	B	0	L1
TTP	40	0	7	B	0	L1
THO	41	0	0	384	C	1	L1
TAP	43	0	7
TAP	43	192	7
TAP	44	0	0
TAP	44	96	0
TAP	44	192	0
TAP	45	0	1
TAP	45	192	1
HLD	46	0	1	192
TAP	47	0	2
TAP	47	192	2
TAP	48	0	3
TAP	48	96	3
TAP	48	192	3
TAP	49	0	4
TAP	49	96	4
TAP	49	192	4
XTP	50	0	3
XTP	50	0	4
TAP	51	0	3
TAP	51	192	3
TAP	52	0	4
TAP	52	96	4
TAP	52	192	4
TAP	53	0	5
TAP	53	192	5
HLD	54	0	5	192
TAP	55	0	6
TAP	55	192	6
TAP	56	0	7
TAP	56	96	7
TAP	56	192	7
TAP	57	0	0
TAP	57	96	0
TAP	57	192	0
BRK	58	0	0
BRK	58	0	7
STR	59	0	7
SI_	59	0	7	96	288	3
STR	61	0	0
SI_	61	0	0	96	288	4
STR	63	0	6
SI_	63	0	6	96	288	3
STR	65	0	1
SI_	65	0	1	96	288	4
TAP	67	0	5
TAP	67	192	5
TAP	68	0	4
TAP	68	0	5
TAP	69	0	2
TAP	69	192	2
TAP	70	0	2
TAP	70	0	3
TTP	71	0	4	B	0	L1
TTP	72	0	3	B	0	L1
TTP	73	0	5	B	0	L1
TTP	74	0	2	B	0	L1
TTP	75	0	1	B	0	L1
TTP	75	0	6	B	0	L1
THO	76	0	0	384	C	1	L1
HLD	78	0	0	768
HLD	82	0	7	384
TAP	84	0	0
TAP	84	0	7
TAP	84	192	0
TAP	84	192	7
BRK	85	0	0
BRK	85	0	7
TAP	86	0	0
TAP	86	192	0
TAP	87	0	7
TAP	87	96	7
TAP	87	192	7
TAP	88	0	6
TAP	88	192	6
HLD	89	0	6	192
TAP	90	0	5
TAP	90	192	5
TAP	91	0	4
TAP	91	96	4
TAP	91	192	4
TAP	92	0	3
TAP	92	96	3
TAP	92	192	3
BRK	93	0	3
BRK	93	0	4
TAP	94	0	3
TAP	94	0	4
TAP	94	192	3
TAP	94	192	4
HLD	95	0	2	288
HLD	95	0	5	288

T_REC_TAP	80
T_REC_BRK	6
T_REC_XTP	4
T_REC_HLD	10
T_REC_XHO	0
T_REC_STR	4
T_REC_BST	0
T_REC_XST	0
T_REC_TTP	14
T_REC_THO	2
T_REC_SLD	4
T_REC_ALL	124
T_NUM_TAP	102
T_NUM_BRK	6
T_NUM_HLD	12
T_NUM_SLD	4
T_NUM_ALL	124
T_JUDGE_TAP	108
T_JUDGE_HLD	88
T_JUDGE_SLD	4
T_JUDGE_ALL	200
TTM_EACHPAIRS	13
TTM_SCR_TAP	51000
TTM_SCR_BRK	15600
TTM_SCR_HLD	12000
TTM_SCR_SLD	6000
TTM_SCR_ALL	84600
TTM_SCR_S	81500
TTM_SCR_SS	84000
TTM_RAT_ACV	10071

