VERSION	0.00.00	1.03.00
FES_MODE	0
BPM_DEF	190.000	190.000	190.000	190.000
MET_DEF	4	4
RESOLUTION	384
CLK_DEF	384
COMPATIBLE_CODE	MA2

BPM	0	0	190.000
MET	0	0	4	4
MET	70	0	4	3
MET	79	0	4	4

STR	1	0	5
SCL	1	0	5	96	48	2
TAP	1	96	1
TAP	1	144	1
TAP	1	240	0
TAP	1	240	7
TAP	1	336	1
STR	2	0	1
SCL	2	0	1	96	48	6
TAP	2	96	4
TAP	2	144	4
TAP	2	240	3
TAP	2	240	5
TAP	2	336	6
TAP	3	0	4
TAP	3	0	6
TAP	3	96	1
TAP	3	144	1
TAP	3	144	3
STR	3	240	7
SCL	3	240	7	96	48	3
SCR	3	240	7	96	48	3
XTP	4	96	1
XTP	4	96	6
TTP	4	192	0	C	1	M1
TTP	4	192	2	B	0	M1
TTP	4	192	3	B	0	M1
TTP	4	192	4	B	0	M1
TTP	4	192	5	B	0	M1
STR	5	0	2
SCR	5	0	2	96	48	5
TAP	5	96	6
TAP	5	144	6
TAP	5	240	0
TAP	5	240	7
TAP	5	336	6
STR	6	0	6
SCR	6	0	6	96	48	1
TAP	6	96	3
TAP	6	144	3
TAP	6	240	2
TAP	6	240	4
TAP	6	336	0
BRK	7	0	0
TAP	7	96	4
TAP	7	96	5
BRK	7	192	1
TAP	7	288	3
TAP	7	288	6
BRK	8	0	0
TAP	8	0	4
BRK	8	96	1
TAP	8	96	7
BRK	8	192	2
TAP	8	192	4
BRK	8	288	3
TAP	8	288	7
STR	9	0	1
SCR	9	0	1	96	48	4
STR	9	0	5
SCR	9	0	5	96	48	0
XTP	9	96	1
XTP	9	96	5
XTP	9	240	2
XTP	9	240	5
XST	9	288	2
SI_	9	288	2	96	48	7
XTP	9	288	5
XST	10	0	5
SI_	10	0	5	96	48	0
XST	10	96	3
SI_	10	96	3	96	48	7
XST	10	192	4
SI_	10	192	4	96	48	0
TAP	10	288	3
TAP	11	0	2
TAP	11	48	2
TAP	11	96	0
TAP	11	144	0
TAP	11	192	7
TAP	11	240	7
XST	11	288	5
SI_	11	288	5	96	48	0
XST	12	0	2
SI_	12	0	2	96	48	7
XST	12	96	4
SI_	12	96	4	96	48	0
XST	12	192	3
SI_	12	192	3	96	48	7
TAP	12	288	4
TAP	13	0	5
TAP	13	48	5
TAP	13	96	7
TAP	13	144	7
TAP	13	192	0
TAP	13	240	0
STR	13	288	2
SCR	13	288	2	96	48	5
HLD	14	0	6	96
TAP	14	96	0
TAP	14	144	0
STR	14	240	7
SLL	14	240	7	96	192	3
TTP	14	336	0	C	1	M1
TAP	15	48	0
TAP	15	96	0
TAP	15	144	0
TAP	15	192	0
TAP	15	288	1
STR	15	288	3
SCR	15	288	3	96	192	7
TAP	16	0	2
TAP	16	96	2
TAP	16	192	3
TAP	16	288	3
TAP	17	0	4
TAP	17	96	4
TAP	17	192	5
STR	17	288	4
SCL	17	288	4	96	192	0
TAP	17	288	6
TAP	18	0	5
TAP	18	96	5
TAP	18	192	4
TAP	18	288	4
TAP	19	0	3
TAP	19	96	3
TAP	19	144	4
TAP	19	192	2
TAP	19	288	1
STR	19	288	3
SI_	19	288	3	96	96	7
TAP	20	0	1
TAP	20	96	2
TAP	20	192	3
TAP	20	240	5
STR	20	288	4
SI_	20	288	4	96	96	0
TAP	20	288	6
TAP	21	0	6
TAP	21	96	5
TAP	21	192	5
TAP	21	240	3
TAP	21	288	2
STR	21	288	5
SCR	21	288	5	96	144	2
TTP	22	0	0	C	1	M1
BRK	22	192	0
XTP	23	0	0
XTP	23	0	7
XTP	23	48	1
XTP	23	48	6
XTP	23	96	2
XTP	23	96	5
STR	23	144	3
SCL	23	144	3	96	48	0
STR	23	144	4
SCR	23	144	4	96	48	7
STR	24	0	4
SI_	24	0	4	96	48	1
TAP	24	0	5
TAP	24	96	7
STR	24	192	4
SI_	24	192	4	96	48	7
TAP	24	192	5
TAP	24	288	6
STR	25	0	4
SI_	25	0	4	96	48	1
TAP	25	0	5
TAP	25	96	7
STR	25	192	4
SI_	25	192	4	96	48	7
TAP	25	192	5
TAP	25	288	6
TAP	26	0	4
TAP	26	0	5
TAP	26	96	7
STR	26	192	0
SCR	26	192	0	96	96	4
STR	26	288	4
SCR	26	288	4	96	96	0
STR	27	0	0
SCR	27	0	0	96	96	4
TAP	27	96	4
TAP	27	192	0
TAP	27	288	1
TAP	27	288	5
TAP	28	0	2
STR	28	0	3
SI_	28	0	3	96	48	6
TAP	28	96	0
TAP	28	192	2
STR	28	192	3
SI_	28	192	3	96	48	0
TAP	28	288	1
TAP	29	0	2
STR	29	0	3
SI_	29	0	3	96	48	6
TAP	29	96	0
TAP	29	192	2
TAP	29	192	3
STR	29	288	1
SUR	29	288	1	96	192	3
TAP	29	288	4
TTP	30	0	0	C	1	M1
BRK	30	192	7
TAP	30	288	3
TAP	30	288	4
TAP	31	0	0
TAP	31	0	7
TAP	31	48	1
TAP	31	48	6
TAP	31	96	2
TAP	31	96	5
TAP	31	144	3
TAP	31	144	4
TAP	31	240	2
TAP	31	288	2
TAP	31	288	3
TAP	32	0	1
TAP	32	0	4
STR	32	96	4
SI_	32	96	4	96	48	0
STR	32	96	5
SI_	32	96	5	96	48	7
XTP	32	192	4
XTP	32	192	5
TAP	33	0	0
STR	33	48	0
SSL	33	48	0	96	144	4
HLD	33	144	5	144
TAP	34	0	3
TAP	34	0	6
STR	34	96	2
SI_	34	96	2	96	48	0
STR	34	96	3
SI_	34	96	3	96	48	7
XTP	34	192	2
XTP	34	192	3
TAP	35	0	6
STR	35	48	6
SLL	35	48	6	96	144	0
HLD	35	144	3	144
TAP	36	0	1
TAP	36	0	5
STR	36	96	3
SI_	36	96	3	96	48	0
STR	36	96	4
SI_	36	96	4	96	48	7
XTP	36	192	3
XTP	36	192	4
TAP	37	0	0
STR	37	48	0
SF_	37	48	0	96	96	4
TAP	37	288	2
TAP	37	288	6
STR	38	0	5
SI_	38	0	5	96	48	0
TAP	38	96	3
STR	38	192	2
SI_	38	192	2	96	48	7
TAP	38	288	4
TAP	39	0	5
TAP	39	96	4
TAP	39	96	6
TAP	39	144	4
TAP	39	144	6
TAP	39	240	3
TAP	39	288	2
TAP	39	288	5
TAP	40	0	1
TAP	40	0	4
STR	40	96	2
SI_	40	96	2	96	48	0
STR	40	96	3
SI_	40	96	3	96	48	7
XTP	40	192	2
XTP	40	192	3
TAP	41	0	7
STR	41	48	7
SLL	41	48	7	96	144	3
HLD	41	144	2	144
TAP	42	0	0
TAP	42	0	4
TAP	42	96	2
TAP	42	96	6
STR	42	192	1
SI_	42	192	1	96	48	5
TAP	42	288	7
STR	42	336	7
SUL	42	336	7	96	96	2
TAP	43	48	2
HLD	43	144	1	96
TAP	43	240	7
TAP	43	288	7
STR	44	0	5
SCL	44	0	5	96	48	2
TAP	44	96	0
STR	44	192	2
SCR	44	192	2	96	48	5
TAP	44	288	7
STR	45	0	5
SCL	45	0	5	96	48	2
TAP	45	96	1
TAP	45	192	0
STR	45	288	7
SI_	45	288	7	96	96	3
STR	46	0	3
SCL	46	0	3	96	96	0
STR	46	96	0
SI_	46	96	0	96	96	4
STR	46	192	4
SCR	46	192	4	96	96	7
STR	46	288	7
SI_	46	288	7	96	96	3
STR	47	0	3
SCL	47	0	3	96	192	4
TAP	47	96	0
TAP	47	288	0
HLD	47	336	0	96
TAP	48	48	7
TAP	48	96	7
TAP	48	144	2
TAP	48	192	2
TAP	48	240	5
TAP	48	288	3
TAP	48	288	4
TAP	48	336	3
TAP	48	336	4
TAP	49	48	0
TAP	49	48	7
TAP	49	96	0
TAP	49	96	7
TTP	49	192	0	C	1	M1
TTP	49	192	2	B	0	M1
TTP	49	192	5	B	0	M1
XTP	50	0	0
XTP	50	0	7
HLD	50	96	3	96
HLD	50	96	4	96
TAP	50	240	1
TAP	50	240	6
STR	50	288	1
SXL	50	288	1	96	192	4
STR	50	288	6
SXR	50	288	6	96	192	3
BRK	51	288	0
BST	51	288	7
SI_	51	288	7	96	48	2
XTP	52	0	1
XTP	52	0	7
BST	52	96	0
SI_	52	96	0	96	48	5
BRK	52	96	7
XTP	52	192	0
XTP	52	192	6
STR	52	288	0
SI_	52	288	0	96	48	2
STR	52	288	7
SI_	52	288	7	96	48	3
STR	53	0	0
SI_	53	0	0	96	48	4
STR	53	0	7
SI_	53	0	7	96	48	5
XTP	53	96	0
XTP	53	96	7
XTP	53	192	2
XTP	53	192	6
TAP	53	288	0
TAP	53	288	7
TAP	53	336	0
TAP	53	336	7
TAP	54	48	1
STR	54	96	1
SI_	54	96	1	96	48	3
STR	54	144	3
SV_	54	144	3	96	48	4
STR	54	192	4
SI_	54	192	4	96	48	6
TAP	55	0	7
TAP	55	48	7
TAP	55	96	0
BRK	55	144	1
BRK	55	144	5
BRK	55	240	2
BRK	55	240	6
STR	56	0	4
SI_	56	0	4	96	48	0
STR	56	0	5
SCL	56	0	5	96	48	2
XTP	56	192	0
STR	56	288	0
SI_	56	288	0	96	48	4
STR	56	288	7
SI_	56	288	7	96	48	5
STR	57	0	0
SI_	57	0	0	96	48	2
STR	57	0	7
SI_	57	0	7	96	48	3
XTP	57	96	0
XTP	57	96	7
TAP	57	192	1
TAP	57	192	5
TAP	57	288	0
HLD	57	336	0	96
TAP	58	48	7
TAP	58	96	4
TAP	58	96	6
TAP	58	144	3
TAP	58	192	2
TAP	58	192	3
TAP	58	240	1
STR	58	288	0
SCR	58	288	0	96	192	7
TAP	58	288	7
TTP	59	0	0	C	1	M1
STR	59	288	2
SCL	59	288	2	96	48	7
STR	59	288	6
SCL	59	288	6	96	48	3
TAP	60	96	0
TAP	60	96	4
TAP	60	192	2
TAP	60	192	6
STR	60	288	3
SI_	60	288	3	96	48	7
STR	60	288	4
SI_	60	288	4	96	48	6
STR	61	0	3
SI_	61	0	3	96	48	1
STR	61	0	4
SI_	61	0	4	96	48	0
STR	61	96	3
SI_	61	96	3	96	48	7
STR	61	96	4
SI_	61	96	4	96	48	6
XTP	61	192	3
XTP	61	192	4
XTP	61	288	1
XTP	61	288	5
HLD	62	0	0	96
TAP	62	96	7
TAP	62	144	7
STR	62	192	2
SI_	62	192	2	96	48	5
STR	62	192	6
SI_	62	192	6	96	48	1
STR	63	0	0
SLL	63	0	0	96	48	4
SLR	63	0	0	96	48	4
BRK	63	192	1
BRK	63	192	7
TAP	63	288	0
HLD	63	336	0	96
STR	64	48	7
SLL	64	48	7	96	96	3
STR	64	96	7
SV_	64	96	7	96	48	1
HLD	64	336	1	96
STR	65	48	0
SLL	65	48	0	96	96	4
STR	65	96	0
SV_	65	96	0	96	48	2
STR	66	0	2
SI_	66	0	2	96	48	0
STR	66	0	3
SI_	66	0	3	96	48	7
STR	66	192	4
SI_	66	192	4	96	48	0
STR	66	192	5
SI_	66	192	5	96	48	7
HLD	67	0	0	192
HLD	67	0	7	192
STR	67	288	4
SI_	67	288	4	96	48	0
STR	67	288	6
SI_	67	288	6	96	48	0
STR	68	96	1
SI_	68	96	1	96	48	7
STR	68	96	3
SI_	68	96	3	96	48	7
TAP	68	288	4
TAP	68	288	6
BRK	69	0	2
BRK	69	0	5
BRK	69	48	2
BRK	69	48	5
BRK	69	96	2
BRK	69	96	5
BRK	69	144	2
BRK	69	144	5
BRK	69	192	2
BRK	69	192	5
STR	69	288	1
SXL	69	288	1	96	768	4
HLD	70	0	7	192
HLD	70	288	6	192
TAP	71	192	5
TAP	71	288	5
TAP	72	0	5
TAP	72	96	6
TAP	72	192	6
STR	72	288	6
SXR	72	288	6	96	768	3
HLD	73	0	0	192
HLD	73	288	1	192
TAP	74	192	2
TAP	74	288	2
TAP	75	0	2
TAP	75	96	1
TAP	75	192	1
TAP	75	288	1
TAP	76	0	0
STR	76	96	0
SLR	76	96	0	96	192	4
TAP	76	288	7
STR	77	0	7
SLL	77	0	7	96	192	3
TAP	77	192	0
STR	77	288	0
SLR	77	288	0	96	192	4
XTP	78	96	7
XTP	78	192	7
TAP	79	0	0
TAP	79	0	7
TAP	79	96	1
TAP	79	96	3
TAP	79	192	0
TAP	79	192	7
TAP	79	288	4
TAP	79	288	6
TAP	80	0	7
TAP	80	48	7
TAP	80	96	0
HLD	80	144	6	96
TAP	80	240	4
TAP	80	288	4
TAP	80	288	6
TAP	81	0	0
TAP	81	0	7
TAP	81	96	2
TAP	81	96	4
TAP	81	192	0
TAP	81	192	7
TAP	81	288	3
TAP	81	288	5
TAP	82	0	0
TAP	82	48	0
TAP	82	96	7
HLD	82	144	1	96
TAP	82	240	3
STR	82	336	0
SCR	82	336	0	96	528	7
TAP	82	336	4
XTP	83	48	7
XTP	83	96	7
XTP	83	192	0
XTP	83	288	0
XTP	84	0	1
XTP	84	96	1
XTP	84	192	2
XTP	84	288	3
XHO	84	336	3	96
XTP	85	48	4
XTP	85	96	4
XTP	85	144	1
XTP	85	192	1
XTP	85	240	6
XTP	85	288	6
XTP	85	336	1
XTP	85	336	6
TAP	86	48	0
TAP	86	48	7
TAP	86	96	0
TAP	86	96	7
TTP	86	192	0	C	1	M1
TTP	86	192	2	B	0	M1
TTP	86	192	5	B	0	M1
XTP	87	0	0
XTP	87	0	7
HLD	87	96	3	96
HLD	87	96	4	96
TAP	87	240	1
TAP	87	240	6
STR	87	288	1
SXL	87	288	1	96	144	4
STR	87	288	6
SXR	87	288	6	96	144	3
BRK	88	240	0
BRK	88	240	6
BRK	88	288	0
BST	88	288	6
SI_	88	288	6	96	48	3
XTP	89	0	2
XTP	89	0	6
BST	89	96	1
SI_	89	96	1	96	48	4
BRK	89	96	7
XTP	89	192	1
XTP	89	192	5
STR	89	288	0
SI_	89	288	0	96	48	2
STR	89	288	7
SI_	89	288	7	96	48	5
STR	90	0	0
SI_	90	0	0	96	48	4
STR	90	0	7
SI_	90	0	7	96	48	3
XTP	90	96	0
XTP	90	96	7
XTP	90	192	1
XTP	90	192	6
TAP	90	288	0
HLD	90	336	0	96
TAP	91	48	4
TAP	91	96	2
TAP	91	144	6
STR	91	192	0
SCL	91	192	0	96	48	4
SCR	91	192	0	96	48	4
TAP	92	0	7
TAP	92	48	7
TAP	92	96	1
BRK	92	144	2
BRK	92	144	6
BRK	92	240	1
BRK	92	240	5
TAP	93	0	2
STR	93	0	6
SLR	93	0	6	96	144	4
STR	93	96	1
SI_	93	96	1	96	48	3
STR	93	288	0
SI_	93	288	0	96	48	4
STR	93	288	7
SI_	93	288	7	96	48	3
STR	94	0	0
SCR	94	0	0	96	48	3
STR	94	0	7
SCL	94	0	7	96	48	4
XTP	94	96	0
XTP	94	96	7
XTP	94	192	1
XTP	94	192	6
XTP	94	288	0
XTP	94	288	7
XTP	94	336	0
XTP	94	336	7
TAP	95	48	3
TAP	95	96	4
TAP	95	144	2
TAP	95	192	3
TAP	95	192	5
TAP	95	240	6
TAP	95	288	0
STR	95	288	7
SCL	95	288	7	96	192	0
TTP	96	0	0	C	1	M1
STR	96	288	1
SCR	96	288	1	96	48	4
STR	96	288	5
SCR	96	288	5	96	48	0
TAP	97	96	3
TAP	97	96	7
TAP	97	192	1
TAP	97	192	5
STR	97	288	3
SI_	97	288	3	96	48	1
STR	97	288	4
SI_	97	288	4	96	48	0
STR	98	0	3
SI_	98	0	3	96	48	7
STR	98	0	4
SI_	98	0	4	96	48	6
STR	98	96	3
SI_	98	96	3	96	48	1
STR	98	96	4
SI_	98	96	4	96	48	0
XTP	98	192	3
XTP	98	192	4
TAP	98	288	2
TAP	98	288	6
HLD	99	0	7	96
TAP	99	96	0
TAP	99	144	0
STR	99	192	1
SI_	99	192	1	96	48	6
STR	99	192	5
SI_	99	192	5	96	48	2
STR	100	0	7
SLL	100	0	7	96	48	3
SLR	100	0	7	96	48	3
BRK	100	192	0
BRK	100	192	6
TAP	100	288	7
HLD	100	336	7	96
STR	101	48	0
SLR	101	48	0	96	96	4
STR	101	96	0
SV_	101	96	0	96	48	6
HLD	101	336	6	96
STR	102	48	7
SLR	102	48	7	96	96	3
STR	102	96	7
SV_	102	96	7	96	48	5
STR	103	0	4
SI_	103	0	4	96	48	0
STR	103	0	5
SI_	103	0	5	96	48	7
STR	103	192	2
SI_	103	192	2	96	48	0
STR	103	192	3
SI_	103	192	3	96	48	7
TAP	104	0	6
TAP	104	0	7
TAP	104	48	0
TAP	104	48	5
TAP	104	96	1
TAP	104	96	4
HLD	104	144	2	96
TAP	104	144	3
TAP	104	240	4
TAP	104	288	4
STR	105	0	2
SI_	105	0	2	96	48	0
STR	105	0	3
SI_	105	0	3	96	48	7
STR	105	192	4
SI_	105	192	4	96	48	0
STR	105	192	5
SI_	105	192	5	96	48	7
TAP	106	0	0
TAP	106	0	1
TAP	106	48	2
TAP	106	48	7
TAP	106	96	3
TAP	106	96	6
TAP	106	144	4
TAP	106	144	5
TAP	106	240	0
TAP	106	288	0
HLD	107	0	7	672
HLD	107	192	0	480
TAP	109	0	1
TAP	109	0	6
TAP	109	96	1
TAP	109	96	6
XTP	109	240	3
XTP	109	240	4
STR	109	288	3
SCL	109	288	3	96	192	4
XTP	109	288	4
TTP	110	0	0	C	1	M1
TAP	110	288	0
TAP	110	288	7
STR	111	0	5
SI_	111	0	5	96	48	0
TAP	111	48	5
STR	111	96	2
SI_	111	96	2	96	48	7
TAP	111	144	2
STR	111	192	6
SI_	111	192	6	96	48	3
TAP	111	240	6
TAP	111	288	1
TAP	111	336	1
STR	112	0	0
SCL	112	0	0	96	48	5
SCR	112	0	0	96	48	3
STR	112	192	7
SCL	112	192	7	96	48	4
SCR	112	192	7	96	48	2
STR	113	0	2
SI_	113	0	2	96	48	7
TAP	113	48	2
STR	113	96	5
SI_	113	96	5	96	48	0
TAP	113	144	5
STR	113	192	1
SI_	113	192	1	96	48	4
TAP	113	240	1
TAP	113	288	7
TAP	113	336	7
TAP	114	0	0
TAP	114	48	2
TAP	114	72	3
TAP	114	96	1
TAP	114	144	0
TAP	114	144	5
TAP	114	240	2
STR	114	240	7
SCL	114	240	7	96	240	1
TTP	114	336	0	C	1	M1
TAP	115	48	0
TAP	115	96	0
TAP	115	144	0
TAP	115	192	0
TAP	115	288	2
TAP	115	288	5
TTP	116	48	5	E	0	M1
TTP	116	96	4	E	0	M1
TTP	116	144	3	E	0	M1
TTP	116	240	6	B	0	M1
TTP	116	240	7	E	0	M1
TTP	116	288	1	B	0	M1
TTP	116	288	1	E	0	M1
TAP	117	48	0
TAP	117	48	7
BRK	117	144	3
BRK	117	144	4
BRK	117	192	1
BRK	117	192	6

T_REC_TAP	320
T_REC_BRK	40
T_REC_XTP	79
T_REC_HLD	29
T_REC_XHO	1
T_REC_STR	144
T_REC_BST	4
T_REC_XST	8
T_REC_TTP	25
T_REC_THO	0
T_REC_SLD	162
T_REC_ALL	812
T_NUM_TAP	576
T_NUM_BRK	44
T_NUM_HLD	30
T_NUM_SLD	162
T_NUM_ALL	812
T_JUDGE_TAP	620
T_JUDGE_HLD	95
T_JUDGE_SLD	162
T_JUDGE_ALL	877
TTM_EACHPAIRS	180
TTM_SCR_TAP	288000
TTM_SCR_BRK	114400
TTM_SCR_HLD	30000
TTM_SCR_SLD	243000
TTM_SCR_ALL	675400
TTM_SCR_S	650900
TTM_SCR_SS	671000
TTM_RAT_ACV	10065

