VERSION	0.00.00	1.03.00
FES_MODE	0
BPM_DEF	190.000	190.000	190.000	190.000
MET_DEF	4	4
RESOLUTION	384
CLK_DEF	384
COMPATIBLE_CODE	MA2

BPM	0	0	190.000
MET	0	0	4	4
MET	70	0	4	3
MET	79	0	4	4

HLD	1	0	2	144
HLD	1	0	3	144
XTP	1	240	2
XTP	1	240	3
HLD	2	0	4	144
HLD	2	0	5	144
XTP	2	240	4
XTP	2	240	5
HLD	3	0	2	144
HLD	3	0	3	144
XTP	3	240	2
XTP	3	240	3
XTP	3	336	1
XTP	3	336	4
BRK	4	96	1
BRK	4	96	6
BRK	4	192	1
BRK	4	192	6
HLD	5	0	1	144
HLD	5	0	3	144
XTP	5	240	1
XTP	5	240	3
HLD	6	0	4	144
HLD	6	0	6	144
XTP	6	240	4
XTP	6	240	6
XTP	7	0	0
XTP	7	192	1
BRK	8	0	0
BRK	8	96	1
BRK	8	192	2
BRK	8	288	3
STR	9	0	4
SXL	9	0	4	96	192	0
SXR	9	0	4	96	192	0
TAP	10	0	1
TAP	10	96	2
TAP	10	96	3
TAP	10	192	2
TAP	10	288	1
TAP	10	288	3
HLD	11	0	1	96
HLD	11	96	3	96
HLD	11	192	4	96
TAP	11	288	6
TAP	12	0	6
TAP	12	96	4
TAP	12	96	5
TAP	12	192	5
TAP	12	288	4
TAP	12	288	6
HLD	13	0	6	96
HLD	13	96	4	96
HLD	13	192	3	96
HLD	13	288	1	96
TAP	14	0	6
TAP	14	96	1
TAP	14	96	7
TAP	14	144	1
TAP	14	144	7
TAP	14	240	0
TAP	14	240	6
STR	14	336	1
SLL	14	336	1	96	240	3
STR	14	336	5
SLR	14	336	5	96	240	3
STR	16	0	2
SXL	16	0	2	96	144	4
TAP	16	0	4
TAP	17	0	3
STR	17	0	5
SXR	17	0	5	96	144	3
STR	18	0	2
SXR	18	0	2	96	144	0
TAP	18	0	4
TAP	19	0	6
TAP	19	0	7
TAP	19	96	0
TAP	19	96	5
HLD	19	144	0	144
HLD	19	144	5	144
TAP	20	0	0
STR	20	0	1
SCR	20	0	1	96	96	4
TAP	20	240	5
TAP	20	288	5
STR	21	0	6
SCL	21	0	6	96	96	3
TAP	21	0	7
TAP	21	240	2
TAP	21	288	2
TAP	22	0	0
TAP	22	0	1
TAP	22	96	2
TAP	22	192	5
TAP	22	240	3
TAP	22	288	5
TAP	23	0	2
TAP	23	0	4
TAP	23	96	2
TAP	23	96	5
STR	23	144	2
SI_	23	144	2	96	48	0
STR	23	144	5
SI_	23	144	5	96	48	7
TAP	24	0	1
TAP	24	96	2
TAP	24	96	3
TAP	24	192	2
TAP	24	240	2
TAP	24	288	3
TAP	25	0	6
TAP	25	96	4
TAP	25	96	5
TAP	25	192	5
TAP	25	240	5
TAP	25	288	4
TAP	26	0	0
TAP	26	96	2
TAP	26	96	4
TAP	26	192	2
TAP	26	240	2
TAP	26	288	4
TAP	27	0	7
TAP	27	96	3
TAP	27	96	5
TAP	27	192	4
TAP	27	240	4
TAP	27	288	3
TAP	27	288	5
TAP	28	0	6
TAP	28	96	5
TAP	28	96	7
TAP	28	192	5
TAP	28	240	4
TAP	28	288	5
TAP	29	0	1
TAP	29	96	0
TAP	29	96	2
TAP	29	192	2
TAP	29	240	3
TAP	29	288	2
STR	30	0	1
SCR	30	0	1	96	96	4
STR	30	0	7
SCL	30	0	7	96	96	4
TAP	31	0	3
TAP	31	0	4
TAP	31	96	1
TAP	31	96	6
HLD	31	144	1	144
HLD	31	144	6	144
TAP	32	0	4
TAP	32	0	5
TAP	32	96	4
TAP	32	96	5
BRK	32	192	3
BRK	32	192	6
TAP	33	0	0
TAP	33	0	1
TAP	33	96	0
TAP	33	96	1
HLD	33	144	0	144
HLD	33	144	1	144
TAP	34	0	2
TAP	34	0	3
TAP	34	96	2
TAP	34	96	3
BRK	34	192	1
BRK	34	192	4
TAP	35	0	6
TAP	35	0	7
TAP	35	96	6
TAP	35	96	7
HLD	35	144	6	144
HLD	35	144	7	144
TAP	36	0	0
TAP	36	0	1
TAP	36	96	0
TAP	36	96	1
BRK	36	192	2
BRK	36	192	7
TAP	37	0	4
TAP	37	0	5
TAP	37	96	5
TAP	37	144	5
TAP	37	240	3
TAP	37	288	3
TAP	38	0	6
TAP	38	96	3
TAP	38	96	5
TAP	38	192	1
TAP	38	288	2
TAP	38	288	4
TAP	39	0	1
STR	39	0	6
SUL	39	0	6	96	144	4
BRK	40	0	1
BRK	40	0	4
BRK	40	96	3
BRK	40	96	6
BRK	40	192	2
BRK	40	192	5
TAP	41	0	6
TAP	41	96	4
TAP	41	96	5
TAP	41	192	3
TAP	41	288	2
TAP	41	288	3
TAP	42	0	1
TAP	42	96	0
TAP	42	96	1
TAP	42	192	7
TAP	42	288	0
TAP	42	288	6
HLD	42	336	0	96
HLD	42	336	6	96
BRK	43	144	1
BRK	43	144	5
TAP	44	0	0
TAP	44	0	1
TAP	44	96	0
STR	44	96	1
SCR	44	96	1	96	96	4
SV_	44	96	1	96	96	4
TAP	45	0	6
TAP	45	0	7
STR	45	96	6
SCL	45	96	6	96	96	3
SV_	45	96	6	96	96	3
TAP	45	96	7
TAP	46	0	1
TAP	46	96	2
TAP	46	96	3
TAP	46	192	5
TAP	46	288	6
TAP	46	288	7
TAP	46	336	6
TAP	46	336	7
TAP	47	48	0
TAP	47	48	1
STR	47	96	0
SI_	47	96	0	96	96	4
STR	47	96	1
SI_	47	96	1	96	96	4
TAP	48	0	4
TAP	48	96	5
TAP	48	192	6
TAP	48	288	3
TAP	48	288	6
TAP	48	336	3
TAP	48	336	6
TAP	49	48	1
TAP	49	48	4
TAP	49	96	1
TAP	49	96	4
XTP	49	192	0
XTP	49	192	7
XTP	49	288	1
XTP	49	288	6
TTP	50	0	2	B	0	M1
TTP	50	0	3	E	0	M1
TTP	50	0	5	B	0	M1
TTP	50	0	5	E	0	M1
TTP	50	192	1	B	0	M1
TTP	50	192	1	E	0	M1
TTP	50	192	6	B	0	M1
TTP	50	192	7	E	0	M1
HLD	51	0	2	288
BRK	51	288	7
XTP	52	0	0
XTP	52	0	7
XTP	52	96	1
XTP	52	96	3
TAP	52	192	0
TAP	52	192	7
TAP	52	288	4
TAP	52	288	6
TAP	53	0	0
TAP	53	0	7
STR	53	96	2
SCL	53	96	2	96	96	6
STR	53	96	3
SUL	53	96	3	96	96	6
TAP	54	0	6
TAP	54	0	7
TAP	54	96	0
TAP	54	96	5
TAP	54	192	1
TAP	54	240	1
TAP	54	288	3
TAP	55	0	6
TAP	55	48	6
TAP	55	96	4
BRK	55	144	3
BRK	55	144	5
BRK	55	240	3
BRK	55	240	5
TAP	56	0	0
TAP	56	0	6
TAP	56	96	4
TAP	56	96	5
TAP	56	192	1
TAP	56	192	7
TAP	56	288	2
TAP	56	288	3
TAP	57	0	1
TAP	57	0	4
TAP	57	96	5
TAP	57	144	5
TAP	57	192	4
TAP	57	288	1
TAP	57	288	6
TAP	58	0	1
TAP	58	0	3
TAP	58	96	0
TAP	58	96	7
TAP	58	192	4
TAP	58	192	6
TAP	58	288	0
TAP	58	288	7
STR	59	0	2
SCL	59	0	2	96	192	4
STR	59	0	3
SUL	59	0	3	96	192	4
TAP	60	0	6
STR	60	0	7
SI_	60	0	7	96	48	3
STR	60	192	0
SI_	60	192	0	96	48	4
TAP	60	192	1
TAP	61	0	2
STR	61	0	3
SI_	61	0	3	96	48	7
STR	61	192	4
SI_	61	192	4	96	48	0
TAP	61	192	5
XTP	62	0	2
XTP	62	0	7
TAP	62	96	1
TAP	62	144	1
TAP	62	192	3
TAP	62	288	6
TAP	62	336	6
XTP	63	0	3
XTP	63	0	5
XTP	63	96	2
XTP	63	96	4
XTP	63	192	0
XTP	63	192	7
TAP	63	288	1
TAP	63	288	5
HLD	63	336	1	240
TAP	63	336	5
TAP	64	48	3
TAP	64	96	3
TAP	64	192	0
TAP	64	288	2
TAP	64	288	6
TAP	64	336	2
HLD	64	336	6	240
TAP	65	48	4
TAP	65	96	4
TAP	65	192	7
TAP	65	288	0
TAP	65	288	4
BST	66	0	4
SI_	66	0	4	96	48	0
STR	66	0	5
SI_	66	0	5	96	48	7
STR	66	192	2
SI_	66	192	2	96	48	0
BST	66	192	3
SI_	66	192	3	96	48	7
STR	67	0	3
SXR	67	0	3	96	192	0
STR	67	0	4
SXL	67	0	4	96	192	7
XTP	68	0	1
XTP	68	0	6
XTP	68	192	2
XTP	68	192	5
XTP	69	0	0
XTP	69	0	7
XTP	69	48	0
XTP	69	48	7
XTP	69	96	0
XTP	69	96	7
XTP	69	144	0
XTP	69	144	7
XTP	69	192	0
XTP	69	192	7
TAP	69	288	1
HLD	70	0	1	192
TAP	70	192	2
HLD	70	288	2	192
TAP	71	96	3
HLD	71	192	3	192
TAP	72	0	4
HLD	72	96	4	192
TAP	72	288	0
HLD	73	0	0	192
TAP	73	192	7
HLD	73	288	7	192
TAP	74	96	6
HLD	74	192	6	192
TAP	75	0	5
HLD	75	96	5	192
TAP	75	288	1
HLD	76	0	1	96
TAP	76	96	3
TAP	76	192	4
TAP	76	288	5
TAP	77	0	4
TAP	77	0	6
HLD	77	192	6	96
TAP	77	288	4
TAP	78	0	3
TAP	78	96	2
TAP	78	192	1
TAP	78	192	3
TTP	79	0	0	B	0	M1
TTP	79	96	1	B	0	M1
TTP	79	192	2	B	0	M1
TTP	79	288	3	B	0	M1
TTP	80	0	4	B	0	M1
TTP	80	96	5	B	0	M1
TTP	80	192	1	B	0	M1
TTP	80	192	6	B	0	M1
TTP	81	0	7	B	0	M1
TTP	81	96	6	B	0	M1
TTP	81	192	5	B	0	M1
TTP	81	288	4	B	0	M1
TTP	82	0	3	B	0	M1
TTP	82	96	2	B	0	M1
TTP	82	192	1	B	0	M1
TTP	82	192	6	B	0	M1
TAP	83	0	2
TAP	83	96	2
TAP	83	96	3
TAP	83	192	5
TAP	83	288	4
TAP	83	288	5
TAP	84	0	2
TAP	84	96	1
TAP	84	96	3
TAP	84	192	5
TAP	84	288	4
TAP	84	288	6
TAP	85	0	2
TAP	85	48	2
TAP	85	96	5
TAP	85	144	5
TAP	85	192	1
TAP	85	240	1
TAP	85	288	6
TAP	85	336	6
TAP	86	48	1
TAP	86	48	7
TAP	86	96	1
TAP	86	96	7
XTP	86	192	0
XTP	86	288	1
TAP	87	0	2
STR	87	0	3
SUL	87	0	3	96	96	7
SUR	87	0	3	96	96	7
TAP	87	288	0
TAP	87	288	6
STR	88	0	0
SUL	88	0	0	96	96	4
SUR	88	0	0	96	96	4
TAP	88	0	1
BRK	88	288	1
BRK	88	288	5
TAP	89	0	0
TAP	89	0	6
TAP	89	96	3
TAP	89	96	4
TAP	89	192	1
TAP	89	192	7
TAP	89	288	3
HLD	89	288	4	288
TTP	90	0	4	B	0	M1
TTP	90	96	0	C	0	M1
TTP	90	192	0	B	0	M1
TAP	91	0	6
TAP	91	0	7
TAP	91	96	2
TAP	91	96	4
TAP	91	192	5
TAP	91	240	5
TAP	91	288	3
TAP	92	0	2
TAP	92	48	2
TAP	92	96	4
BRK	92	144	1
BRK	92	144	5
BRK	92	240	1
BRK	92	240	5
TAP	93	0	3
TAP	93	0	4
TAP	93	96	0
TAP	93	96	1
TAP	93	192	3
TAP	93	192	4
TAP	93	288	6
TAP	93	288	7
TAP	94	0	3
TAP	94	0	4
TAP	94	96	1
TAP	94	144	1
TAP	94	192	0
TAP	94	288	2
TAP	94	288	5
TAP	95	0	5
TAP	95	0	7
TAP	95	96	3
TAP	95	96	4
TAP	95	192	0
TAP	95	192	2
TAP	95	288	3
TAP	95	288	4
TAP	96	0	3
STR	96	0	4
SXL	96	0	4	96	192	4
SXR	96	0	4	96	192	4
STR	97	0	0
SI_	97	0	0	96	48	4
TAP	97	0	1
TAP	97	192	6
STR	97	192	7
SI_	97	192	7	96	48	3
STR	98	0	4
SI_	98	0	4	96	48	0
TAP	98	0	5
TAP	98	192	2
STR	98	192	3
SI_	98	192	3	96	48	7
TAP	99	0	1
TAP	99	0	6
TAP	99	96	0
TAP	99	144	0
TAP	99	192	3
TAP	99	288	6
TAP	99	336	6
XTP	100	0	3
XTP	100	0	5
XTP	100	96	2
XTP	100	96	4
XTP	100	192	0
XTP	100	192	7
TAP	100	288	1
TAP	100	288	5
HLD	100	336	1	240
TAP	100	336	5
TAP	101	48	3
TAP	101	96	3
TAP	101	192	0
TAP	101	288	2
TAP	101	288	6
TAP	101	336	2
HLD	101	336	6	240
TAP	102	48	4
TAP	102	96	4
TAP	102	192	7
TAP	102	288	0
TAP	102	288	4
BST	103	0	4
SI_	103	0	4	96	48	0
STR	103	0	5
SI_	103	0	5	96	48	7
STR	103	192	2
SI_	103	192	2	96	48	0
BST	103	192	3
SI_	103	192	3	96	48	7
STR	104	0	3
SXR	104	0	3	96	192	0
STR	104	0	4
SXL	104	0	4	96	192	7
XTP	105	0	2
XTP	105	0	5
XTP	105	192	1
XTP	105	192	6
XHO	106	0	0	192
XHO	106	0	7	192
TTP	107	0	3	B	0	M1
TTP	107	0	4	B	0	M1
TTP	107	0	4	E	0	M1
TTP	107	192	0	B	0	M1
TTP	107	192	0	E	0	M1
TTP	107	192	7	B	0	M1
TTP	109	0	2	B	0	M1
TTP	109	0	3	E	0	M1
TTP	109	0	5	B	0	M1
TTP	109	0	5	E	0	M1
TTP	109	192	1	B	0	M1
TTP	109	192	1	E	0	M1
TTP	109	192	6	B	0	M1
TTP	109	192	7	E	0	M1
STR	110	0	2
SCL	110	0	2	96	480	4
TAP	110	0	5
TAP	112	0	5
TAP	112	96	4
TAP	112	96	6
TAP	112	192	2
TAP	112	240	3
TAP	112	288	1
TAP	112	288	4
TAP	113	0	4
TAP	113	0	6
TAP	113	96	3
TAP	113	96	4
TAP	113	192	1
TAP	113	192	3
TAP	113	288	0
TAP	113	288	7
TAP	114	0	6
TAP	114	96	1
TAP	114	96	7
TAP	114	144	1
TAP	114	144	7
TAP	114	240	0
TAP	114	240	6
STR	114	336	1
SLL	114	336	1	96	240	3
STR	114	336	5
SLR	114	336	5	96	240	3
XTP	117	48	3
XTP	117	48	4
XTP	117	144	1
XTP	117	144	6
XTP	117	192	1
XTP	117	192	6

T_REC_TAP	354
T_REC_BRK	33
T_REC_XTP	62
T_REC_HLD	43
T_REC_XHO	2
T_REC_STR	43
T_REC_BST	4
T_REC_XST	0
T_REC_TTP	41
T_REC_THO	0
T_REC_SLD	53
T_REC_ALL	635
T_NUM_TAP	500
T_NUM_BRK	37
T_NUM_HLD	45
T_NUM_SLD	53
T_NUM_ALL	635
T_JUDGE_TAP	537
T_JUDGE_HLD	148
T_JUDGE_SLD	53
T_JUDGE_ALL	738
TTM_EACHPAIRS	195
TTM_SCR_TAP	250000
TTM_SCR_BRK	96200
TTM_SCR_HLD	45000
TTM_SCR_SLD	79500
TTM_SCR_ALL	470700
TTM_SCR_S	453000
TTM_SCR_SS	467000
TTM_RAT_ACV	10079

