VERSION	0.00.00	1.03.00
FES_MODE	0
BPM_DEF	190.000	190.000	190.000	190.000
MET_DEF	4	4
RESOLUTION	384
CLK_DEF	384
COMPATIBLE_CODE	MA2

BPM	0	0	190.000
MET	0	0	4	4
MET	70	0	4	3
MET	79	0	4	4

XHO	1	0	2	384
HLD	2	0	3	384
HLD	3	0	4	480
XTP	4	192	4
XTP	4	192	5
XHO	5	0	6	384
HLD	6	0	7	384
XTP	7	0	6
XTP	7	192	7
XTP	8	0	6
XTP	8	96	7
XTP	8	192	0
XTP	8	288	1
STR	9	0	2
SI_	9	0	2	96	144	7
TAP	10	0	6
TAP	10	96	6
TAP	10	192	6
TAP	10	192	7
TAP	11	0	1
TAP	11	96	1
TAP	11	192	0
TAP	11	192	1
TAP	12	0	6
TAP	12	96	6
TAP	12	192	6
TAP	12	192	7
TAP	13	0	0
TAP	13	96	0
TAP	13	192	1
TAP	13	192	7
TAP	14	0	7
TAP	14	96	7
TAP	14	192	0
TAP	14	288	0
HLD	15	0	1	192
HLD	15	0	6	192
HLD	16	0	2	192
TAP	16	192	3
HLD	17	0	5	192
TAP	17	192	4
HLD	18	0	2	192
TAP	18	192	3
HLD	19	0	4	96
HLD	19	0	5	96
TAP	19	192	4
TAP	19	192	5
STR	20	0	2
SI_	20	0	2	96	144	7
STR	21	0	6
SI_	21	0	6	96	144	3
STR	22	0	2
SCL	22	0	2	96	144	7
XTP	23	0	6
XTP	23	192	6
XTP	23	192	7
TAP	24	0	6
TAP	24	96	6
TAP	24	192	7
TAP	25	0	1
TAP	25	96	1
TAP	25	192	0
TAP	26	0	6
TAP	26	96	6
TAP	26	192	7
TAP	27	0	0
TAP	27	96	0
TAP	27	192	1
TAP	27	192	7
TAP	28	0	2
TAP	28	96	2
TAP	28	192	3
TAP	29	0	5
TAP	29	96	5
TAP	29	192	4
TAP	30	0	2
TAP	30	96	2
TAP	30	192	3
TAP	31	0	4
TAP	31	96	4
TAP	31	192	3
TAP	31	192	5
TTP	32	0	6	E	0	L1
TTP	32	192	5	B	0	L1
THO	33	0	0	192	C	0	L1
TTP	34	0	2	E	0	L1
TTP	34	192	2	B	0	L1
THO	35	0	0	192	C	0	L1
TTP	36	0	5	B	0	L1
TTP	36	192	4	B	0	L1
TTP	37	0	2	B	0	L1
TTP	37	192	3	B	0	L1
TTP	38	0	2	B	0	L1
TTP	38	0	5	B	0	L1
TTP	38	192	1	B	0	L1
TTP	38	192	6	B	0	L1
TTP	39	0	0	B	0	L1
TTP	39	0	7	B	0	L1
HLD	40	0	2	96
HLD	40	0	3	96
TAP	40	192	2
TAP	40	192	3
TAP	41	0	5
TAP	41	96	5
TAP	41	192	5
TAP	42	0	2
TAP	42	96	2
TAP	42	192	2
TAP	43	0	4
TAP	43	96	4
TAP	43	192	3
TAP	43	192	5
TAP	44	0	6
TAP	44	96	6
TAP	44	192	6
TAP	45	0	1
TAP	45	96	1
TAP	45	192	1
TAP	46	0	7
TAP	46	96	7
TAP	46	192	0
TAP	46	288	0
STR	47	0	0
SI_	47	0	0	96	144	3
STR	47	0	7
SI_	47	0	7	96	144	4
XTP	48	0	2
XTP	48	96	3
XTP	48	192	4
XTP	48	288	5
XTP	49	0	1
XTP	49	0	6
XTP	49	192	2
XTP	49	192	5
XTP	50	0	1
XTP	50	0	6
XTP	50	192	1
XTP	50	192	6
HLD	51	0	0	96
HLD	51	0	7	96
BRK	51	192	0
BRK	51	192	7
TAP	52	0	1
TAP	52	96	1
TAP	52	192	0
TAP	52	288	0
TAP	53	0	7
TAP	53	96	7
TAP	53	192	0
TAP	53	192	6
TAP	54	0	5
TAP	54	96	5
TAP	54	192	4
TAP	54	288	4
TAP	55	0	3
TAP	55	96	3
BRK	55	192	2
BRK	55	192	5
TAP	56	0	2
TAP	56	96	2
TAP	56	192	1
TAP	56	288	1
TAP	57	0	0
TAP	57	96	0
TAP	57	192	1
TAP	57	192	7
TAP	58	0	5
TAP	58	96	5
TAP	58	192	6
TAP	58	288	6
XTP	59	0	0
XTP	59	0	7
XTP	59	96	0
XTP	59	96	7
XTP	59	192	1
XTP	59	192	6
HLD	60	0	2	192
TAP	60	96	3
TAP	60	192	3
HLD	61	0	5	192
TAP	61	96	4
TAP	61	192	4
TAP	62	0	5
TAP	62	96	5
TAP	62	192	6
TAP	62	288	6
XTP	63	0	0
XTP	63	0	7
XTP	63	96	0
XTP	63	96	7
XTP	63	192	1
XTP	63	192	6
HLD	64	0	1	192
TAP	64	96	0
TAP	64	192	0
HLD	65	0	6	192
TAP	65	96	7
TAP	65	192	7
TAP	66	0	5
TAP	66	96	5
TAP	66	192	4
TAP	66	288	4
STR	67	0	3
SI_	67	0	3	96	144	0
STR	67	0	4
SI_	67	0	4	96	144	7
XTP	68	0	0
XTP	68	0	7
XTP	68	192	0
XTP	68	192	7
XTP	69	0	0
XTP	69	0	7
XTP	69	96	0
XTP	69	96	7
XTP	69	192	0
XTP	69	192	7
STR	70	0	1
SCR	70	0	1	96	288	5
STR	71	192	6
SCL	71	192	6	96	288	2
STR	73	0	1
SCR	73	0	1	96	288	5
STR	74	192	6
SCL	74	192	6	96	288	2
HLD	76	0	1	288
TAP	76	288	0
HLD	77	192	6	288
TAP	78	96	7
TTP	79	0	6	E	0	L1
TTP	79	192	5	B	0	L1
THO	80	0	0	192	C	0	L1
TTP	81	0	2	E	0	L1
TTP	81	192	2	B	0	L1
THO	82	0	0	192	C	0	L1
TTP	83	0	0	B	0	L1
TTP	83	192	1	B	0	L1
TTP	84	0	2	B	0	L1
TTP	84	192	3	B	0	L1
TTP	85	0	4	B	0	L1
TTP	85	192	5	B	0	L1
TTP	86	0	6	B	0	L1
TTP	86	192	0	C	0	L1
XTP	87	0	0
XTP	87	0	7
XTP	87	192	0
XTP	87	192	7
TAP	88	0	1
TAP	88	0	6
BRK	88	192	1
BRK	88	192	6
TAP	89	0	1
TAP	89	96	1
TAP	89	192	2
TAP	89	288	2
XTP	90	0	3
XTP	90	0	4
XTP	90	96	3
XTP	90	96	4
XTP	90	192	2
XTP	90	192	5
TAP	91	0	6
TAP	91	96	6
TAP	91	192	7
TAP	91	288	7
TAP	92	0	0
TAP	92	96	0
BRK	92	192	1
BRK	92	192	6
TAP	93	0	2
TAP	93	96	2
TAP	93	192	1
TAP	93	288	1
TAP	94	0	0
TAP	94	96	0
TAP	94	192	1
TAP	94	192	7
TAP	95	0	6
TAP	95	96	6
TAP	95	192	5
TAP	95	288	5
XTP	96	0	3
XTP	96	0	4
XTP	96	96	3
XTP	96	96	4
XTP	96	192	2
XTP	96	192	5
HLD	97	0	2	192
TAP	97	96	3
TAP	97	192	3
HLD	98	0	5	192
TAP	98	96	4
TAP	98	192	4
TAP	99	0	5
TAP	99	96	5
TAP	99	192	6
TAP	99	288	6
XTP	100	0	0
XTP	100	0	7
XTP	100	96	0
XTP	100	96	7
XTP	100	192	1
XTP	100	192	6
HLD	101	0	1	192
TAP	101	96	0
TAP	101	192	0
HLD	102	0	6	192
TAP	102	96	7
TAP	102	192	7
TAP	103	0	5
TAP	103	96	5
TAP	103	192	4
TAP	103	288	4
STR	104	0	3
SI_	104	0	3	96	144	0
STR	104	0	4
SI_	104	0	4	96	144	7
TAP	105	0	0
TAP	105	192	1
STR	106	0	2
SI_	106	0	2	96	144	5
TAP	107	0	4
TAP	107	0	5
TAP	107	192	4
TAP	107	192	5
XTP	109	0	3
XTP	109	0	4
XTP	109	192	2
XTP	109	192	5
BRK	110	0	1
TAP	110	96	1
TAP	110	192	0
TAP	110	192	1
TAP	111	0	6
TAP	111	96	6
TAP	111	192	6
TAP	111	192	7
TAP	112	0	1
TAP	112	96	1
TAP	112	192	0
TAP	112	192	1
TAP	113	0	7
TAP	113	96	7
TAP	113	192	0
TAP	113	192	6
XTP	114	0	1
XTP	114	96	1
XTP	114	192	0
XTP	114	288	0
XST	115	0	0
SXL	115	0	0	96	384	3
XST	115	0	7
SXR	115	0	7	96	384	4
XTP	117	48	3
XTP	117	48	4
XTP	117	192	3
XTP	117	192	4

T_REC_TAP	178
T_REC_BRK	9
T_REC_XTP	79
T_REC_HLD	24
T_REC_XHO	2
T_REC_STR	15
T_REC_BST	0
T_REC_XST	2
T_REC_TTP	26
T_REC_THO	4
T_REC_SLD	17
T_REC_ALL	356
T_NUM_TAP	300
T_NUM_BRK	9
T_NUM_HLD	30
T_NUM_SLD	17
T_NUM_ALL	356
T_JUDGE_TAP	309
T_JUDGE_HLD	134
T_JUDGE_SLD	17
T_JUDGE_ALL	460
TTM_EACHPAIRS	63
TTM_SCR_TAP	150000
TTM_SCR_BRK	23400
TTM_SCR_HLD	30000
TTM_SCR_SLD	25500
TTM_SCR_ALL	228900
TTM_SCR_S	221200
TTM_SCR_SS	228000
TTM_RAT_ACV	10039

