VERSION	0.00.00	1.03.00
FES_MODE	0
BPM_DEF	190.000	190.000	190.000	190.000
MET_DEF	4	4
RESOLUTION	384
CLK_DEF	384
COMPATIBLE_CODE	MA2

BPM	0	0	190.000
MET	0	0	4	4
MET	70	0	4	3
MET	79	0	4	4

TAP	5	0	0
TAP	6	0	0
HLD	7	0	7	384
BRK	9	0	0
BRK	9	0	7
TAP	10	0	0
TAP	11	0	0
TAP	12	0	1
TAP	13	0	1
HLD	14	0	2	384
TAP	16	0	3
TAP	17	0	3
TAP	18	0	4
TAP	19	0	4
TAP	20	0	3
TAP	20	192	3
TAP	21	0	3
TAP	22	0	4
TAP	22	192	4
XTP	23	0	3
XTP	23	0	4
TAP	24	0	5
TAP	25	0	5
TAP	26	0	6
TAP	27	0	6
TAP	28	0	7
TAP	28	192	7
TAP	29	0	7
TAP	30	0	0
TAP	30	192	0
BRK	31	0	0
BRK	31	0	7
TTP	32	0	1	B	0	L1
TTP	33	0	2	B	0	L1
TTP	34	0	3	B	0	L1
TTP	35	0	4	B	0	L1
TTP	36	0	5	B	0	L1
TTP	37	0	6	B	0	L1
HLD	38	0	7	384
TTP	40	0	6	B	0	L1
TTP	41	0	5	B	0	L1
TTP	42	0	4	B	0	L1
TTP	43	0	3	B	0	L1
TTP	44	0	2	B	0	L1
TTP	45	0	1	B	0	L1
TTP	46	0	0	B	0	L1
TTP	46	0	7	B	0	L1
TTP	47	0	1	B	0	L1
TTP	47	0	6	B	0	L1
THO	48	0	0	768	C	1	L1
TAP	52	0	0
TAP	52	192	0
TAP	53	0	0
TAP	53	96	0
TAP	53	192	0
TAP	54	0	1
TAP	54	192	1
XTP	55	0	1
XTP	55	96	1
XTP	55	192	1
TAP	56	0	2
TAP	56	192	2
TAP	57	0	2
TAP	57	96	2
TAP	57	192	2
TAP	58	0	3
TAP	58	192	3
BRK	59	0	3
BRK	59	0	4
TAP	60	0	4
TAP	60	192	4
TAP	61	0	4
TAP	61	96	4
TAP	61	192	4
TAP	62	0	5
TAP	62	192	5
XTP	63	0	5
XTP	63	96	5
XTP	63	192	5
TAP	64	0	6
TAP	64	192	6
TAP	65	0	6
TAP	65	96	6
TAP	65	192	6
TAP	66	0	7
TAP	66	192	7
HLD	67	0	0	192
HLD	67	0	7	192
TAP	68	0	0
TAP	68	0	7
TAP	68	192	0
TAP	68	192	7
TAP	69	0	0
TAP	69	96	7
TAP	69	192	0
STR	70	0	0
SI_	70	0	0	96	480	3
STR	73	0	7
SI_	73	0	7	96	480	4
HLD	76	0	3	288
HLD	77	192	4	288
XTP	79	0	3
XTP	79	0	4
XTP	79	192	3
XTP	79	192	4
TAP	80	0	2
TAP	80	96	2
TAP	80	192	2
XTP	81	0	3
XTP	81	0	4
XTP	81	192	3
XTP	81	192	4
TAP	82	0	5
TAP	82	96	5
TAP	82	192	5
TTP	83	0	3	B	0	L1
TTP	83	0	4	B	0	L1
TTP	84	0	2	B	0	L1
TTP	84	0	5	B	0	L1
THO	85	0	0	768	C	1	L1
TAP	89	0	7
TAP	89	96	7
TAP	89	192	7
TAP	90	0	7
TAP	90	96	7
TAP	90	192	7
TAP	91	0	6
TAP	91	96	6
TAP	91	192	6
XTP	92	0	6
XTP	92	0	7
XTP	92	96	6
XTP	92	96	7
XTP	92	192	6
XTP	92	192	7
TAP	93	0	5
TAP	93	96	5
TAP	93	192	5
TAP	94	0	5
TAP	94	96	5
TAP	94	192	5
TAP	95	0	4
TAP	95	96	4
TAP	95	192	4
HLD	96	0	3	192
HLD	96	0	4	192
TAP	97	0	3
TAP	97	96	3
TAP	97	192	3
TAP	98	0	3
TAP	98	96	3
TAP	98	192	3
TAP	99	0	2
TAP	99	96	2
TAP	99	192	2
XTP	100	0	2
XTP	100	0	3
XTP	100	96	2
XTP	100	96	3
XTP	100	192	2
XTP	100	192	3
TAP	101	0	1
TAP	101	96	1
TAP	101	192	1
TAP	102	0	1
TAP	102	96	1
TAP	102	192	1
TAP	103	0	0
TAP	103	96	0
TAP	103	192	0
HLD	104	0	0	192
HLD	104	0	7	192
TAP	105	0	7
TAP	105	96	7
TAP	105	192	7
HLD	106	0	0	192
HLD	106	0	6	192
TAP	107	0	0
TAP	107	96	0
TAP	107	192	7
BRK	107	288	7
TAP	110	0	0
TAP	110	96	0
TAP	110	192	0
TAP	111	0	1
TAP	111	96	1
TAP	111	192	1
TAP	112	0	2
TAP	112	96	2
TAP	112	192	2
TAP	113	0	3
TAP	113	96	4
TAP	113	192	3
HLD	114	0	4	192
HLD	114	0	5	192
HLD	115	0	2	192
HLD	115	0	3	192
HLD	116	0	4	384
XTP	117	192	3
XTP	117	192	5

T_REC_TAP	119
T_REC_BRK	7
T_REC_XTP	30
T_REC_HLD	18
T_REC_XHO	0
T_REC_STR	2
T_REC_BST	0
T_REC_XST	0
T_REC_TTP	20
T_REC_THO	2
T_REC_SLD	2
T_REC_ALL	200
T_NUM_TAP	171
T_NUM_BRK	7
T_NUM_HLD	20
T_NUM_SLD	2
T_NUM_ALL	200
T_JUDGE_TAP	178
T_JUDGE_HLD	124
T_JUDGE_SLD	2
T_JUDGE_ALL	304
TTM_EACHPAIRS	23
TTM_SCR_TAP	85500
TTM_SCR_BRK	18200
TTM_SCR_HLD	20000
TTM_SCR_SLD	3000
TTM_SCR_ALL	126700
TTM_SCR_S	122250
TTM_SCR_SS	126000
TTM_RAT_ACV	10055

